↑↓Torrent.by
Поиск
Логин: Регистрация
Пароль: Восстановить пароль

Маугли дикой планеты / Terra Willy: Planète inconnue (2019) WEB-DLRip-AVC от ExKinoRay | iTunes

Скачать maugli-dikoy-planety-terra-willy-plan-te-inconnue-2019-web-dlrip-avc-ot-exkinoray-itunes.torrent
U Магнитная ссылка Размер: 1.43 GB Раздают: 169 Качают: 41 Добавлен: 2019-08-06 10:35:55
Маугли дикой планеты / Terra Willy: Planète inconnue (2019) WEB-DLRip-AVC от ExKinoRay | iTunes

Название: Маугли дикой планеты
Оригинальное название: Terra Willy: Planète inconnue
Год выпуска: 2019
Жанр:  Мультфильм, фантастика, комедия, приключения, полнометражный
Режиссёр: Эрик Тости
В ролях: Тимоте Фон Дорп, Эдуард Баэр, Мари-Южени Марешаль, Гийом Лебон, Барбара Тиссье, Джейсон Каннинг, Лэнден Битти

О фильме: Попав в метеоритный дождь, юный космический исследователь Вилли оказывается на неизвестной планете. С помощью робота Бака он должен выжить здесь до прибытия спасательной миссии его родителей. Но батарея Бака быстро садится, и, чтобы спасти Бака и вернуться домой, Вилли придется найти новых друзей и научиться жить по законам джунглей дикой планеты.

Выпущено: Франция, TAT Productions, Bac Films, France 3 Cinéma
Продолжительность: 01:26:10
Перевод: Дублированный | iTunes

Формат: MKV
Качество: WEB-DLRip-AVC
Видео: MPEG-4 AVC, 1024x428 (2.40:1), 25.000 fps, 1999 Kbps, 0.182 bit/pixel
Аудио: 48 kHz, AC3, 5.1, 384 Kbps | RUS |

Релиз:

Автор релиза:


[+] ОтчетМедиаИнфо

General
Unique ID                                : 195402046911258923546590073367073009049 (0x930110B9BC3A9B11A83C4F63E3F62D99)
Complete name                            : F:Maugli.dikoj.planety.2019.iTunes.AVC.ExKinoRay.mkv
Format                                   : Matroska
Format version                           : Version 2
File size                                : 1.43 GiB
Duration                                 : 1 h 26 min
Overall bit rate                         : 2 384 kb/s
Movie name                               : Маугли дикой планеты 2019 from ExKinoRay
Encoded date                             : UTC 2019-08-06 03:38:32
Writing application                      : mkvmerge v5.6.0 ('Kenya Kane') built on May 27 2012 16:44:04
Writing library                          : libebml v1.2.3 + libmatroska v1.3.0

Video
ID                                       : 1
Format                                   : AVC
Format/Info                              : Advanced Video Codec
Format profile                           : High@L4.1
Format settings, CABAC                   : Yes
Format settings, ReFrames                : 10 frames
Codec ID                                 : V_MPEG4/ISO/AVC
Duration                                 : 1 h 26 min
Bit rate                                 : 1 999 kb/s
Width                                    : 1 024 pixels
Height                                   : 428 pixels
Display aspect ratio                     : 2.40:1
Frame rate mode                          : Constant
Frame rate                               : 25.000 FPS
Color space                              : YUV
Chroma subsampling                       : 4:2:0
Bit depth                                : 8 bits
Scan type                                : Progressive
Bits/(Pixel*Frame)                       : 0.182
Stream size                              : 1.18 GiB (82%)
Title                                    : Enigma
Writing library                          : x264 core 152 r2851 ba24899
Encoding settings                        : cabac=1 / ref=10 / deblock=1:-2:-2 / analyse=0x3:0x113 / me=umh / subme=10 / psy=1 / psy_rd=1.05:0.11 / mixed_ref=1 / me_range=32 / chroma_me=1 / trellis=2 / 8x8dct=1 / cqm=0 / deadzone=21,11 / fast_pskip=0 / chroma_qp_offset=-3 / threads=12 / lookahead_threads=2 / sliced_threads=0 / nr=0 / decimate=0 / interlaced=0 / bluray_compat=0 / constrained_intra=0 / bframes=9 / b_pyramid=2 / b_adapt=2 / b_bias=0 / direct=3 / weightb=1 / open_gop=0 / weightp=2 / keyint=250 / keyint_min=25 / scenecut=40 / intra_refresh=0 / rc=2pass / mbtree=0 / bitrate=1999 / ratetol=1.0 / qcomp=0.60 / qpmin=0 / qpmax=51 / qpstep=4 / cplxblur=20.0 / qblur=0.5 / ip_ratio=1.40 / pb_ratio=1.30 / aq=1:1.00
Default                                  : Yes
Forced                                   : No
Color range                              : Limited
Color primaries                          : BT.709
Transfer characteristics                 : BT.709
Matrix coefficients                      : BT.709

Audio
ID                                       : 2
Format                                   : AC-3
Format/Info                              : Audio Coding 3
Mode extension                           : CM (complete main)
Format settings, Endianness              : Big
Codec ID                                 : A_AC3
Duration                                 : 1 h 26 min
Bit rate mode                            : Constant
Bit rate                                 : 384 kb/s
Channel(s)                               : 6 channels
Channel positions                        : Front: L C R, Side: L R, LFE
Sampling rate                            : 48.0 kHz
Frame rate                               : 31.250 FPS (1536 spf)
Compression mode                         : Lossy
Stream size                              : 237 MiB (16%)
Title                                    : iTunes
Language                                 : Russian
Default                                  : Yes
Forced                                   : No

Menu
00:00:00.000                             : en:Глава 1
00:07:00.960                             : en:Глава 2
00:13:09.960                             : en:Глава 3
00:20:15.240                             : en:Глава 4
00:26:24.600                             : en:Глава 5
00:33:12.400                             : en:Глава 6
00:39:00.840                             : en:Глава 7
00:47:22.360                             : en:Глава 8
00:52:50.800                             : en:Глава 9
00:57:19.960                             : en:Глава 10
01:02:52.560                             : en:Глава 11
01:06:43.160                             : en:Глава 12
01:10:12.520                             : en:Глава 13
01:14:22.200                             : en:Глава 14
01:18:11.640                             : en:Глава 15




Скриншоты:
[+] Всего файлов в раздаче - 1:
Maugli.dikoj.planety.2019.iTunes.AVC.ExKinoRay.mkv1.43 GB

Похожие раздачи по запросу - маугли:
2019-09-09 U Маугли дикой планеты / Terra Willy: Planete inconnue (2019) BDRip(1080p) 6.08 GB ↑ 67 ↓ 2
2019-08-06 U Маугли дикой планеты / Terra Willy: Planète inconnue (2019) WEB-DL 1080p | iTunes 2.94 GB ↑ 322 ↓ 75
2018-12-09 U Маугли / Маугли: Легенда джунглей / Mowgli (2018) WEB-DLRip от Scarabey | Пифагор 1.45 GB ↑ 529 ↓ 145
2018-12-09 U Маугли / Маугли: Легенда джунглей / Mowgli (2018) WEBRip 1080p | Пифагор 4.80 GB ↑ 715 ↓ 258

Отзывы
Зарегистрируйтесь чтобы добавить комментарий.
Обратная связь
Copyleft ©