↑↓Torrent.by
Поиск
Логин: Регистрация
Пароль: Восстановить пароль

Гори, гори ясно / Brightburn (2019) WEB-DL 1080p | D, P

Скачать gori-yasno-brightburn-2019-web-dl-1080p-d-p.torrent
U Магнитная ссылка Размер: 4.86 GB Раздают: 276 Качают: 60 Добавлен: 2019-08-07 10:27:24
Гори, гори ясно / Brightburn (2019) WEB-DL 1080p | D, P

Название: Гори, гори ясно
Оригинальное название: Brightburn
Год выхода: 2019
Жанр: ужасы, фантастика

Режиссер: Дэвид Яровески

В ролях:  Элизабет Бэнкс, Джексон А. Данн, Дэвид Денман, Дженнифер Холлэнд, Мэтт Джонс, Мередит Хагнер, Бекки Уолстром, Грегори Алан Уильямс, Стив Эйджи, Эмми Хантер, Абрахам Клинкскейлз, Кристиан Финлейсон, Майкл Рукер

О фильме: Семейная пара фермеров Тори и Кайл уже долго и безуспешно пытаются завести ребёнка, когда вдруг из космоса в близлежащий лес падает капсула с младенцем. Пара усыновляет малыша и растит его как своего собственного сына. Брэндон растёт послушным, хорошо учится в школе и никогда не болеет. Но по достижении 12 лет характер мальчика резко меняется — он начинает дерзить родителям, и в нём просыпаются незнакомые доселе желания и способности

Страна: США
Продолжительность: 01:30:29
Перевод:
#1 Профессиональный (дублированный) | iTunes
#2 Профессиональный (многоголосый, закадровый) | СВ Студия

Файл
Кодек: x.264
Качество: WEB-DL 1080p | Amazon
Видео: AVC, 1920x800 (2.40:1), 23.976 fps, 6 278 kb/s
Аудио #1: AC-3, 48.0 kHz, 2 ch, 192 kb/s | RUS (DUB / iTunes)
Аудио #2: AC-3, 48.0 kHz, 2 ch, 192 kb/s | RUS (MVO / СВ Студия)
Аудио #3: AC-3, 48.0 kHz, 6 ch, 384 kb/s | UKR (DUB / iTunes)
Аудио #4: AC-3, 48.0 kHz, 6 ch, 640 kb/s | ENG (Оригинал)
Субтитры: Русские (форс., полные), украинские (форс., полные), английские (полные, SDH)

Семпл


[+] MI
General
Unique ID                                : 185110848113351741922236583225892542478 (0x8B430D7357C4C2DCB30141792D6C180E)
Complete name                            : Brightburn.2019.1080p.AMZN.WEB-DL.1080p.mkv
Format                                   : Matroska
Format version                           : Version 4
File size                                : 4.86 GiB
Duration                                 : 1 h 30 min
Overall bit rate                         : 7 689 kb/s
Encoded date                             : UTC 2019-08-06 10:38:21
Writing application                      : mkvmerge v8.3.0 ('Over the Horizon') 64bit
Writing library                          : libebml v1.3.1 + libmatroska v1.4.2

Video
ID                                       : 1
Format                                   : AVC
Format/Info                              : Advanced Video Codec
Format profile                           : High@L4
Format settings                          : CABAC / 4 Ref Frames
Format settings, CABAC                   : Yes
Format settings, ReFrames                : 4 frames
Format settings, GOP                     : M=4, N=48
Codec ID                                 : V_MPEG4/ISO/AVC
Duration                                 : 1 h 30 min
Bit rate mode                            : Constant
Bit rate                                 : 6 278 kb/s
Nominal bit rate                         : 10 000 kb/s
Width                                    : 1 920 pixels
Height                                   : 800 pixels
Display aspect ratio                     : 2.40:1
Frame rate mode                          : Constant
Frame rate                               : 23.976 (24000/1001) FPS
Color space                              : YUV
Chroma subsampling                       : 4:2:0
Bit depth                                : 8 bits
Scan type                                : Progressive
Bits/(Pixel*Frame)                       : 0.170
Stream size                              : 3.97 GiB (82%)
Default                                  : Yes
Forced                                   : No
Color range                              : Limited
Color primaries                          : BT.709
Transfer characteristics                 : BT.709
Matrix coefficients                      : BT.709

Audio #1
ID                                       : 2
Format                                   : AC-3
Format/Info                              : Audio Coding 3
Commercial name                          : Dolby Digital
Codec ID                                 : A_AC3
Duration                                 : 1 h 30 min
Bit rate mode                            : Constant
Bit rate                                 : 192 kb/s
Channel(s)                               : 2 channels
Channel layout                           : L R
Sampling rate                            : 48.0 kHz
Frame rate                               : 31.250 FPS (1536 SPF)
Bit depth                                : 16 bits
Compression mode                         : Lossy
Stream size                              : 124 MiB (2%)
Title                                    : DUB (iTines)
Language                                 : Russian
Default                                  : Yes
Forced                                   : No

Audio #2
ID                                       : 3
Format                                   : AC-3
Format/Info                              : Audio Coding 3
Commercial name                          : Dolby Digital
Codec ID                                 : A_AC3
Duration                                 : 1 h 30 min
Bit rate mode                            : Constant
Bit rate                                 : 192 kb/s
Channel(s)                               : 2 channels
Channel layout                           : L R
Sampling rate                            : 48.0 kHz
Frame rate                               : 31.250 FPS (1536 SPF)
Bit depth                                : 16 bits
Compression mode                         : Lossy
Stream size                              : 124 MiB (2%)
Title                                    : MVO (СВ Студия)
Language                                 : Russian
Default                                  : No
Forced                                   : No

Audio #3
ID                                       : 4
Format                                   : AC-3
Format/Info                              : Audio Coding 3
Commercial name                          : Dolby Digital
Codec ID                                 : A_AC3
Duration                                 : 1 h 30 min
Bit rate mode                            : Constant
Bit rate                                 : 384 kb/s
Channel(s)                               : 6 channels
Channel layout                           : L R C LFE Ls Rs
Sampling rate                            : 48.0 kHz
Frame rate                               : 31.250 FPS (1536 SPF)
Bit depth                                : 16 bits
Compression mode                         : Lossy
Stream size                              : 249 MiB (5%)
Title                                    : DUB (iTunes)
Language                                 : Ukrainian
Default                                  : No
Forced                                   : No

Audio #4
ID                                       : 5
Format                                   : E-AC-3
Format/Info                              : Enhanced AC-3
Commercial name                          : Dolby Digital Plus
Codec ID                                 : A_EAC3
Duration                                 : 1 h 30 min
Bit rate mode                            : Constant
Bit rate                                 : 640 kb/s
Channel(s)                               : 6 channels
Channel layout                           : L R C LFE Ls Rs
Sampling rate                            : 48.0 kHz
Frame rate                               : 31.250 FPS (1536 SPF)
Compression mode                         : Lossy
Stream size                              : 414 MiB (8%)
Language                                 : English
Default                                  : No
Forced                                   : No

Text #1
ID                                       : 6
Format                                   : UTF-8
Codec ID                                 : S_TEXT/UTF8
Codec ID/Info                            : UTF-8 Plain Text
Duration                                 : 1 h 29 min
Bit rate                                 : 0 b/s
Count of elements                        : 10
Stream size                              : 553 Bytes (0%)
Title                                    : Forced
Language                                 : Russian
Default                                  : Yes
Forced                                   : No

Text #2
ID                                       : 7
Format                                   : UTF-8
Codec ID                                 : S_TEXT/UTF8
Codec ID/Info                            : UTF-8 Plain Text
Duration                                 : 1 h 29 min
Bit rate                                 : 60 b/s
Count of elements                        : 894
Stream size                              : 39.7 KiB (0%)
Title                                    : Full
Language                                 : Russian
Default                                  : No
Forced                                   : No

Text #3
ID                                       : 8
Format                                   : UTF-8
Codec ID                                 : S_TEXT/UTF8
Codec ID/Info                            : UTF-8 Plain Text
Duration                                 : 1 h 23 min
Bit rate                                 : 0 b/s
Count of elements                        : 8
Stream size                              : 531 Bytes (0%)
Title                                    : Forced
Language                                 : Ukrainian
Default                                  : No
Forced                                   : No

Text #4
ID                                       : 9
Format                                   : UTF-8
Codec ID                                 : S_TEXT/UTF8
Codec ID/Info                            : UTF-8 Plain Text
Duration                                 : 1 h 24 min
Bit rate                                 : 61 b/s
Count of elements                        : 892
Stream size                              : 38.3 KiB (0%)
Title                                    : Full
Language                                 : Ukrainian
Default                                  : No
Forced                                   : No

Text #5
ID                                       : 10
Format                                   : UTF-8
Codec ID                                 : S_TEXT/UTF8
Codec ID/Info                            : UTF-8 Plain Text
Duration                                 : 1 h 27 min
Bit rate                                 : 42 b/s
Count of elements                        : 1035
Stream size                              : 27.3 KiB (0%)
Title                                    : Full
Language                                 : English
Default                                  : No
Forced                                   : No

Text #6
ID                                       : 11
Format                                   : UTF-8
Codec ID                                 : S_TEXT/UTF8
Codec ID/Info                            : UTF-8 Plain Text
Duration                                 : 1 h 29 min
Bit rate                                 : 50 b/s
Count of elements                        : 1351
Stream size                              : 33.3 KiB (0%)
Title                                    : SDH
Language                                 : English
Default                                  : No
Forced                                   : No

Menu
00:00:00.000                             : en:1
00:03:20.700                             : en:2
00:07:04.631                             : en:3
00:12:30.790                             : en:4
00:17:47.064                             : en:5
00:24:23.168                             : en:6
00:30:28.908                             : en:7
00:38:06.782                             : en:8
00:43:11.669                             : en:9
00:49:25.792                             : en:10
00:56:53.531                             : en:11
01:00:12.353                             : en:12
01:05:22.121                             : en:13
01:08:16.086                             : en:14
01:12:20.579                             : en:15
01:17:28.887                             : en:16



Скриншоты:
[+] Всего файлов в раздаче - 1:
Brightburn.2019.1080p.AMZN.WEB-DL.1080p.mkv4.86 GB

Показать еще раздачи по запросу гори:
2019-10-07 U Гори, гори ясно / Brightburn (2019) BDRip 720p от селезень | D, P | Лицензия 4.34 GB ↑ 57 ↓ 25
2019-10-07 U Гори, гори ясно / Brightburn (2019) BDRip от MegaPeer | Лицензия 1.46 GB ↑ 78 ↓ 17
2019-09-30 U Гори, гори ясно / Brightburn (2019) BDRip от MegaPeer | iTunes 1.42 GB ↑ 550 ↓ 49
2019-08-15 U Гори, гори ясно / Brightburn (2019) BDRip 1080p от селезень | D, P | iTunes 7.63 GB ↑ 294 ↓ 159
2019-08-07 U Гори, гори ясно / Brightburn (2019) WEB-DLRip-AVC от ExKinoRay | D, P 745.95 MB ↑ 74 ↓ 12
2019-08-07 U Гори, гори ясно / Brightburn (2019) WEB-DL 720p | iTunes 2.22 GB ↑ 253 ↓ 54
2019-06-27 U Гори, гори ясно / Brightburn (2019) WEBRip 1080p | СВ Студия 10.91 GB ↑ 250 ↓ 101

Отзывы
Зарегистрируйтесь чтобы добавить комментарий.
Обратная связь
Copyleft ©