↑↓Torrent.by
Поиск
Логин: Регистрация
Пароль: Восстановить пароль
Загрузка...

Гори, гори ясно / Brightburn (2019) WEB-DL 720p | iTunes

Скачать gori-yasno-brightburn-2019-web-dl-720p-itunes.torrent
U Магнитная ссылка Размер: 2.22 GB Раздают: 222 Качают: 54 Добавлен: 2019-08-07 10:27:38
Гори, гори ясно / Brightburn (2019) WEB-DL 720p | iTunes

Название: Гори, гори ясно
Оригинальное название: Brightburn
Год выхода: 2019
Жанр: Ужасы, фантастика, триллер, драма
Режиссер: Дэвид Яровески
В ролях: Элизабет Бэнкс, Джексон А. Данн, Дэвид Денман, Дженнифер Холлэнд, Мэтт Джонс, Мередит Хагнер, Бекки Уолстром, Грегори Алан Уильямс, Стив Эйджи, Эмми Хантер

О фильме:
Семейная пара фермеров Тори и Кайл уже долго и безуспешно пытаются завести ребёнка, когда вдруг из космоса в близлежащий лес падает капсула с младенцем. Пара усыновляет малыша и растит его как своего собственного сына. Брэндон растёт послушным, хорошо учится в школе и никогда не болеет. Но по достижении 12 лет характер мальчика резко меняется — он начинает дерзить родителям, и в нём просыпаются незнакомые доселе желания и способности.

Страна: США
Студия: Screen Gems, The H Collective
Продолжительность: 01:30:30
Перевод: Дублированный | iTunes

Файл
Кодек: AVC
Качество: WEB-DL 720p | Brightburn.2019.720p.AMZN.WEB-DL.DDP5.1.x264-NTG
Видео: MPEG-4 AVC, 2682 Kбит/с, 1248x520, 23.976 кадр/с
Звук: ► Без Рекламы!
Аудио #1: Русский (АС3, 2 ch, 192 Кбит/с, 48.0 KHz) Профессиональный (полное дублирование) iTunes
Аудио #2: Английский (E-АС3, 6 ch, 640 Кбит/с, 48.0 KHz)
Субтитры: Русские (форс., полные), английские (full, SDH)
Трейлер




[+] MediaInfo
Источник: Brightburn.2019.720p.AMZN.WEB-DL.DDP5.1.x264-NTG
General
Unique ID                      : 213584617095151393737780013677525578748 (0xA0AEE6A6209F323FBD8BD1BE925FB3FC)
Complete name                  : Brightburn.2019.AMZN.WEB-DL.720p.mkv
Format                         : Matroska
Format version                 : Version 4
File size                      : 2.22 GiB
Duration                       : 1 h 30 min
Overall bit rate               : 3 516 kb/s
Encoded date                   : UTC 2019-08-06 14:32:30
Writing application            : mkvmerge v7.1.0 ('Good Love') 64bit built on Jul 27 2014 13:06:55
Writing library                : libebml v1.3.0 + libmatroska v1.4.1

Video
ID                             : 1
Format                         : AVC
Format/Info                    : Advanced Video Codec
Format profile                 : High@L3.1
Format settings                : CABAC / 4 Ref Frames
Format settings, CABAC         : Yes
Format settings, Reference fra : 4 frames
Codec ID                       : V_MPEG4/ISO/AVC
Duration                       : 1 h 30 min
Bit rate mode                  : Constant
Bit rate                       : 2 682 kb/s
Nominal bit rate               : 6 000 kb/s
Width                          : 1 248 pixels
Height                         : 520 pixels
Display aspect ratio           : 2.40:1
Frame rate mode                : Constant
Frame rate                     : 23.976 (24000/1001) FPS
Color space                    : YUV
Chroma subsampling             : 4:2:0
Bit depth                      : 8 bits
Scan type                      : Progressive
Bits/(Pixel*Frame)             : 0.172
Stream size                    : 1.70 GiB (76%)
Language                       : English
Default                        : Yes
Forced                         : No
Color range                    : Limited
Color primaries                : BT.709
Transfer characteristics       : BT.709
Matrix coefficients            : BT.709

Audio #1
ID                             : 2
Format                         : AC-3
Format/Info                    : Audio Coding 3
Commercial name                : Dolby Digital
Codec ID                       : A_AC3
Duration                       : 1 h 30 min
Bit rate mode                  : Constant
Bit rate                       : 192 kb/s
Channel(s)                     : 2 channels
Channel layout                 : L R
Sampling rate                  : 48.0 kHz
Frame rate                     : 31.250 FPS (1536 SPF)
Bit depth                      : 16 bits
Compression mode               : Lossy
Stream size                    : 124 MiB (5%)
Title                          : DUB [iTunes]
Language                       : Russian
Service kind                   : Complete Main
Default                        : Yes
Forced                         : No

Audio #2
ID                             : 3
Format                         : E-AC-3
Format/Info                    : Enhanced AC-3
Commercial name                : Dolby Digital Plus
Codec ID                       : A_EAC3
Duration                       : 1 h 30 min
Bit rate mode                  : Constant
Bit rate                       : 640 kb/s
Channel(s)                     : 6 channels
Channel layout                 : L R C LFE Ls Rs
Sampling rate                  : 48.0 kHz
Frame rate                     : 31.250 FPS (1536 SPF)
Compression mode               : Lossy
Stream size                    : 414 MiB (18%)
Language                       : English
Service kind                   : Complete Main
Default                        : No
Forced                         : No

Text #1
ID                             : 4
Format                         : UTF-8
Codec ID                       : S_TEXT/UTF8
Codec ID/Info                  : UTF-8 Plain Text
Duration                       : 1 h 29 min
Bit rate                       : 0 b/s
Count of elements              : 11
Stream size                    : 568 Bytes (0%)
Title                          : Forced
Language                       : Russian
Default                        : Yes
Forced                         : No

Text #2
ID                             : 5
Format                         : UTF-8
Codec ID                       : S_TEXT/UTF8
Codec ID/Info                  : UTF-8 Plain Text
Duration                       : 1 h 29 min
Bit rate                       : 60 b/s
Count of elements              : 895
Stream size                    : 39.8 KiB (0%)
Title                          : Full
Language                       : Russian
Default                        : No
Forced                         : No

Text #3
ID                             : 6
Format                         : UTF-8
Codec ID                       : S_TEXT/UTF8
Codec ID/Info                  : UTF-8 Plain Text
Duration                       : 1 h 27 min
Bit rate                       : 42 b/s
Count of elements              : 1035
Stream size                    : 27.3 KiB (0%)
Language                       : English
Default                        : No
Forced                         : No

Text #4
ID                             : 7
Format                         : UTF-8
Codec ID                       : S_TEXT/UTF8
Codec ID/Info                  : UTF-8 Plain Text
Duration                       : 1 h 29 min
Bit rate                       : 50 b/s
Count of elements              : 1351
Stream size                    : 33.3 KiB (0%)
Title                          : SDH
Language                       : English
Default                        : No
Forced                         : No

Menu
00:00:00.000                   : en:Chapter 1
00:08:23.128                   : en:Chapter 2
00:16:09.594                   : en:Chapter 3
00:21:47.306                   : en:Chapter 4
00:28:41.929                   : en:Chapter 5
00:34:38.451                   : en:Chapter 6
00:40:13.119                   : en:Chapter 7
00:46:23.990                   : en:Chapter 8
00:56:25.674                   : en:Chapter 9
01:05:47.152                   : en:Chapter 10
01:12:16.332                   : en:Chapter 11
01:22:01.792                   : en:Chapter 12



Скриншоты:
[+] Всего файлов в раздаче - 1:
Brightburn.2019.AMZN.WEB-DL.720p.mkv2.22 GB

Показать еще раздачи по запросу гори:
Вчера U Гори, гори ясно / Brightburn (2019) HDRip-AVC от OlLanDGroup | D, P | iTunes 1.82 GB ↑ 179 ↓ 8
2019-08-15 U Гори, гори ясно / Brightburn (2019) HDRip от MegaPeer | iTunes 1.46 GB ↑ 120 ↓ 77
2019-08-15 U Гори, гори ясно / Brightburn (2019) BDRip 1080p от селезень | D, P | iTunes 7.63 GB ↑ 258 ↓ 153
2019-08-15 U Гори, гори ясно / Brightburn (2019) WEB-DLRip от Scarabey | iTunes 1.39 GB ↑ 32 ↓ 14
2019-08-07 U Гори, гори ясно / Brightburn (2019) WEB-DLRip-AVC от ExKinoRay | D, P 745.95 MB ↑ 51 ↓ 12
2019-08-07 U Гори, гори ясно / Brightburn (2019) WEB-DL 1080p | D, P 4.86 GB ↑ 256 ↓ 59
2019-08-06 U Гори, гори ясно / Brightburn (2019) WEB-DL 1080p | СВ Студия 3.21 GB ↑ 70 ↓ 37

Отзывы
Зарегистрируйтесь чтобы добавить комментарий.
Обратная связь
Copyleft ©