↑↓Torrent.by
Поиск
Логин: Регистрация
Пароль: Восстановить пароль
Загрузка...

Мстители: Финал / Avengers: Endgame (2019) BDRip 1080p от qqss44 & MegaPeer | iTunes

Скачать mstiteli-final-avengers-endgame-2019-bdrip-1080p-ot-qqss44-megapeer-itunes.torrent
U Магнитная ссылка Размер: 9.63 GB Раздают: 92 Качают: 70 Добавлен: 2019-08-07 10:28:18
Мстители: Финал / Avengers: Endgame (2019) BDRip 1080p от qqss44 & MegaPeer | iTunes

Информация о фильме
Название: Мстители: Финал
Оригинальное название: Avengers: Endgame
Год выпуска: 2019
Жанр: Фантастика, фэнтези, боевик, приключения
Режиссер: Энтони Руссо, Джо Руссо
В ролях: Бри Ларсон, Линда Карделлини, Скарлетт Йоханссон, Карен Гиллан, Тесса Томпсон, Роберт Дауни мл., Крис Хемсворт, Крис Эванс, Эванджелин Лилли, Хейли Этвелл, Марк Руффало, Джереми Реннер, Дон Чидл, Пол Радд

О фильме:
Оставшиеся в живых члены команды Мстителей и их союзники должны разработать новый план, который поможет противостоять разрушительным действиям могущественного титана Таноса. После наиболее масштабной и трагической битвы в истории они не могут допустить ошибку.

Страна: США
Студия: Marvel Studios
Продолжительность: 03:01:11
Перевод: Дублированный | iTunes

Файл
Формат: MKV, BDRip 1080p
Видео: MPEG-4 AVC, 7222 Кбит/с, 1920x804
Aудио#1: [RUS] AC3 | 48 KHz | 5.1 (Front: L С R Side: L R) + LFE | ~384 kbps
Субтитры: русские форсированные (стилизованные, анимированные, вшиты в видео) + полные (отключаемые, srt)
Релиз:


[+] МИ

x264 [info]: frame I:1964  Avg QP:12.56  size:195226
x264 [info]: frame P:67802 Avg QP:15.55  size: 74199
x264 [info]: frame B:190886 Avg QP:17.25  size: 23028
Общее
Уникальный идентификатор                 : 173115246479428514881770197509888252277 (0x823CC8A0B9A20BEDAE2583C0C82B9975)
Полное имя                               : H:Avengers.Endgame.(2019).BDRip-1080p.MegaPeer.(qqss44).mkv
Формат                                   : Matroska
Версия формата                           : Version 2
Размер файла                             : 9,63 Гбайт
Продолжительность                        : 3 ч. 1 м.
Общий поток                              : 7591 Кбит/сек
Название фильма                          : Avengers.Endgame.(2019).BDRip-1080p.MegaPeer.(qqss44)
Дата кодирования                         : UTC 2019-08-06 16:26:05
Программа кодирования                    : mkvmerge v7.8.0 ('River Man') 32bit built on Apr  3 2015 12:11:22
Библиотека кодирования                   : libebml v1.3.1 + libmatroska v1.4.2

Видео
Идентификатор                            : 1
Формат                                   : AVC
Формат/Информация                        : Advanced Video Codec
Профиль формата                          : High@L4.1
Параметр CABAC формата                   : Да
Параметр ReFrames формата                : 5 кадров
Идентификатор кодека                     : V_MPEG4/ISO/AVC
Продолжительность                        : 3 ч. 1 м.
Битрейт                                  : 7222 Кбит/сек
Ширина                                   : 1920 пикселей
Высота                                   : 804 пикселя
Соотношение сторон                       : 2,40:1
Режим частоты кадров                     : Постоянный
Частота кадров                           : 23,976 (24000/1001) кадра/сек
Цветовое пространство                    : YUV
Субдискретизация насыщенности            : 4:2:0
Битовая глубина                          : 8 бит
Тип развёртки                            : Прогрессивная
Бит/(Пиксели*Кадры)                      : 0.195
Размер потока                            : 8,95 Гбайт (93%)
Библиотека кодирования                   : x264 core 152 r2851 ba24899
Настройки программы                      : cabac=1 / ref=5 / deblock=1:-3:-3 / analyse=0x3:0x113 / me=umh / subme=11 / psy=1 / psy_rd=1.00:0.00 / mixed_ref=1 / me_range=32 / chroma_me=1 / trellis=2 / 8x8dct=1 / cqm=0 / deadzone=21,11 / fast_pskip=0 / chroma_qp_offset=-2 / threads=12 / lookahead_threads=2 / sliced_threads=0 / nr=0 / decimate=0 / interlaced=0 / bluray_compat=0 / constrained_intra=0 / bframes=9 / b_pyramid=2 / b_adapt=2 / b_bias=0 / direct=3 / weightb=1 / open_gop=0 / weightp=2 / keyint=250 / keyint_min=23 / scenecut=40 / intra_refresh=0 / rc_lookahead=40 / rc=2pass / mbtree=0 / bitrate=7222 / ratetol=1.0 / qcomp=0.70 / qpmin=0 / qpmax=69 / qpstep=4 / cplxblur=20.0 / qblur=0.5 / vbv_maxrate=50000 / vbv_bufsize=62500 / nal_hrd=none / filler=0 / ip_ratio=1.40 / pb_ratio=1.30 / aq=3:0.80
Язык                                     : English
Default                                  : Да
Forced                                   : Нет

Аудио
Идентификатор                            : 2
Формат                                   : AC-3
Формат/Информация                        : Audio Coding 3
Расширение режима                        : CM (complete main)
Параметр Endianness формата              : Big
Идентификатор кодека                     : A_AC3
Продолжительность                        : 3 ч. 1 м.
Вид битрейта                             : Постоянный
Битрейт                                  : 384 Кбит/сек
Каналы                                   : 6 каналов
Расположение каналов                     : Front: L C R, Side: L R, LFE
Частота                                  : 48,0 КГц
Частота кадров                           : 31,250 кадров/сек (1536 spf)
Метод сжатия                             : С потерями
Размер потока                            : 499 Мбайт (5%)
Язык                                     : Russian
Default                                  : Да
Forced                                   : Нет

Текст
Идентификатор                            : 3
Формат                                   : UTF-8
Идентификатор кодека                     : S_TEXT/UTF8
Идентификатор кодека/Информация          : UTF-8 Plain Text
Заголовок                                : FULL
Язык                                     : Russian
Default                                  : Нет
Forced                                   : Нет

Меню
00:00:00.000                             : en:Chapter 01
00:08:05.902                             : en:Chapter 02
00:20:01.700                             : en:Chapter 03
00:26:15.282                             : en:Chapter 04
00:36:57.173                             : en:Chapter 05
00:43:20.598                             : en:Chapter 06
00:48:44.171                             : en:Chapter 07
00:57:36.745                             : en:Chapter 08
01:07:12.612                             : en:Chapter 09
01:16:02.516                             : en:Chapter 10
01:26:25.430                             : en:Chapter 11
01:32:20.118                             : en:Chapter 12
01:38:55.805                             : en:Chapter 13
01:48:12.361                             : en:Chapter 14
01:57:26.915                             : en:Chapter 15
02:05:00.243                             : en:Chapter 16
02:15:06.432                             : en:Chapter 17
02:25:50.450                             : en:Chapter 18
02:34:37.935                             : en:Chapter 19
02:43:03.899                             : en:Chapter 20
02:49:05.344                             : en:Chapter 21




Скриншоты:
[+] Всего файлов в раздаче - 1:
Avengers.Endgame.(2019).BDRip-1080p.MegaPeer.(qqss44).mkv9.63 GB

Показать еще раздачи по запросу мстители:
2019-08-18 U Мстители: Финал / Avengers: Endgame (2019) WEBRip от Deadmauvlad | D | Open Matte | Локализованная версия 2.19 GB ↑ 16 ↓ 11
2019-08-18 U Мстители: Финал / Avengers: Endgame (2019) HDRip от Scarabey | iTunes 2.71 GB ↑ 47 ↓ 17
2019-08-16 U Мстители: Финал / Avengers: Endgame (2019) WEBRip 1080p | D, P | Open Matte | Локализованная версия 6.84 GB ↑ 148 ↓ 71
2019-08-09 U Мстители: Финал / Avengers: Endgame (2019) BDRip-HEVC 720p | D | iTunes 3.13 GB ↑ 64 ↓ 20
2019-08-07 U Мстители: Финал / Avengers: Endgame (2019) BDRip-HEVC 1080p от HANNIBAL | iTunes 8.02 GB ↑ 51 ↓ 40
2019-08-07 U Мстители: Финал / Avengers: Endgame (2019) BDRip 1080p от HELLYWOOD | iTunes 11.88 GB ↑ 223 ↓ 107
2019-08-05 U Мстители: Финал / Avengers: Endgame (2019) BDRip-AVC от HELLYWOOD | iTunes 2.83 GB ↑ 149 ↓ 57

Отзывы
Зарегистрируйтесь чтобы добавить комментарий.
Обратная связь
Copyleft ©