↑↓Torrent.by
Поиск
Логин: Регистрация
Пароль: Восстановить пароль
Загрузка...

Мстители: Финал / Avengers: Endgame (2019) BDRip-HEVC 1080p от HANNIBAL | iTunes

Скачать mstiteli-final-avengers-endgame-2019-bdrip-hevc-1080p-ot-hannibal-itunes.torrent
U Магнитная ссылка Размер: 8.02 GB Раздают: 51 Качают: 40 Добавлен: 2019-08-07 10:28:47
Мстители: Финал / Avengers: Endgame (2019) BDRip-HEVC 1080p от HANNIBAL | iTunes

Название: Мстители: Финал
Оригинальное название: Avengers: Endgame
Год выхода: 2019
Жанр: Фантастика, фэнтези, боевик, приключения
Режиссер: Энтони Руссо, Джо Руссо
В ролях: Бри Ларсон, Линда Карделлини, Скарлетт Йоханссон, Карен Гиллан, Тесса Томпсон, Роберт Дауни мл., Крис Хемсворт, Крис Эванс, Эванджелин Лилли, Хейли Этвелл, Марк Руффало, Джереми Реннер, Дон Чидл, Пол Радд

О фильме:
Оставшиеся в живых члены команды Мстителей и их союзники должны разработать новый план, который поможет противостоять разрушительным действиям могущественного титана Таноса. После наиболее масштабной и трагической битвы в истории они не могут допустить ошибку.

Страна: США
Студия: Marvel Studios
Продолжительность: 03:01:11
Перевод: Дублированный (iTunes)

Файл
Качество: BDRip-HEVC 1080p
Видео: HEVC/x.265, 1920x804, ~5500 kb/s
Аудио 1: AC3, 6 ch, 384 Kbps  Дублированный (iTunes)
Аудио 2: AC3, 6 ch, 448 Kbps  (Оригинал)
Субтитры: Русские(Forced, Full), Английские

Релиз:
[+] Mediainfo

General
Unique ID                   : 107231152082879086650859923479587156955 (0x50ABF7FB332ACAD6029BF0B32B7773DB)
Complete name               : E:[HEVC]Avengers Endgame (2019) BDRip-HEVC 1080p.mkv
Format                      : Matroska
Format version              : Version 4
File size                   : 8.02 GiB
Duration                    : 3 h 1 min
Overall bit rate            : 6 334 kb/s
Movie name                  : Мстители: Финал
Deion                 : Marvel представляет самый ожидаемый фильм киновселенной: завершение эпической саги об известнейших супергероях в мире! Оставшиеся в живых члены команды Мстителей и их союзники должны разработать новый план, который поможет противостоять разрушительным действиям могущественного титана Таноса. После наиболее масштабной и трагической битвы в истории они не могут допустить ошибку.
Encoded date                : UTC 2019-08-06 20:27:26
Writing application         : mkvmerge v35.0.0 ('All The Love In The World') 64-bit
Writing library             : libebml v1.3.9 + libmatroska v1.5.2 / Lavf57.71.100
Attachments                 : poster.jpg
DATE                        : 2019-04-29
ENCODING_INFO               : MPEGTS > MKV / H264 > X265 CRF 18.0 Medium
GENRE                       : Боевики и приключения
HD_VIDEO                    : 1
ITUNEXTC                    : ru-movie|16+|375|
Language                    : und
MEDIA_TYPE                  : 9
SYNOPSIS                    : Marvel представляет самый ожидаемый фильм киновселенной: завершение эпической саги об известнейших супергероях в мире! Оставшиеся в живых члены команды Мстителей и их союзники должны разработать новый план, который поможет противостоять разрушительным действиям могущественного титана Таноса. После наиболее масштабной и трагической битвы в истории они не могут допустить ошибку.

Video
ID                          : 1
Format                      : HEVC
Format/Info                 : High Efficiency Video Coding
Format profile              : Main 10@L4.1@High
Codec ID                    : V_MPEGH/ISO/HEVC
Duration                    : 3 h 1 min
Bit rate                    : 5 500 kb/s
Width                       : 1 920 pixels
Height                      : 804 pixels
Display aspect ratio        : 2.40:1
Frame rate mode             : Constant
Frame rate                  : 23.976 (24000/1001) FPS
Color space                 : YUV
Chroma subsampling          : 4:2:0
Bit depth                   : 10 bits
Bits/(Pixel*Frame)          : 0.149
Stream size                 : 6.96 GiB (87%)
Writing library             : x265 3.1+7-147fb92c5ed5:[Windows][clang 8.0.0][64 bit] 10bit
Encoding settings           : cpuid=1111039 / frame-threads=13 / wpp / no-pmode / no-pme / no-psnr / no-ssim / log-level=3 / input-csp=1 / input-res=1920x804 / interlace=0 / total-frames=0 / level-idc=41 / high-tier=1 / uhd-bd=0 / ref=5 / allow-non-conformance / no-repeat-headers / annexb / no-aud / no-hrd / info / hash=0 / no-temporal-layers / open-gop / min-keyint=23 / keyint=240 / gop-lookahead=0 / bframes=8 / b-adapt=2 / b-pyramid / bframe-bias=0 / rc-lookahead=60 / lookahead-slices=4 / scenecut=40 / radl=0 / no-splice / no-intra-refresh / ctu=64 / min-cu-size=8 / rect / amp / max-tu-size=32 / tu-inter-depth=4 / tu-intra-depth=4 / limit-tu=0 / rdoq-level=2 / dynamic-rd=0.00 / no-ssim-rd / signhide / no-tskip / nr-intra=0 / nr-inter=0 / no-constrained-intra / no-strong-intra-smoothing / max-merge=5 / limit-refs=2 / limit-modes / me=3 / subme=7 / merange=57 / temporal-mvp / no-hme / weightp / weightb / no-analyze-src-pics / deblock=-3:-3 / no-sao / no-sao-non-deblock / rd=6 / early-skip / no-rskip / no-fast-intra / no-tskip-fast / no-cu-lossless / b-intra / no-splitrd-skip / rdpenalty=0 / psy-rd=2.00 / psy-rdoq=1.00 / no-rd-refine / no-lossless / cbqpoffs=0 / crqpoffs=0 / rc=crf / crf=18.0 / qcomp=0.60 / qpstep=4 / stats-write=0 / stats-read=0 / vbv-maxrate=50000 / vbv-bufsize=50000 / vbv-init=0.9 / crf-max=30.0 / crf-min=0.0 / ipratio=1.40 / pbratio=1.30 / aq-mode=2 / aq-strength=1.00 / no-cutree / zone-count=0 / no-strict-cbr / qg-size=32 / no-rc-grain / qpmax=69 / qpmin=0 / no-const-vbv / sar=1 / overscan=0 / videoformat=5 / range=0 / colorprim=1 / transfer=1 / colormatrix=1 / chromaloc=0 / display-window=0cll=0,0 / min-luma=0 / max-luma=1023 / log2-max-poc-lsb=8 / vui-timing-info / vui-hrd-info / slices=1 / no-opt-qp-pps / no-opt-ref-list-length-pps / no-multi-pass-opt-rps / scenecut-bias=0.05 / no-opt-cu-delta-qp / no-aq-motion / no-hdr / no-hdr-opt / no-dhdr10-opt / no-idr-recovery-sei / analysis-reuse-level=5 / scale-factor=0 / refine-intra=0 / refine-inter=0 / refine-mv=0 / refine-ctu-distortion=0 / no-limit-sao / ctu-info=0 / no-lowpass-dct / refine-analysis-type=4784212 / copy-pic=1 / max-ausize-factor=1.0 / no-dynamic-refine / no-single-sei / no-hevc-aq / no-svt / no-field / qp-adaptation-range=1.00
Default                     : Yes
Forced                      : No
Color range                 : Limited
Color primaries             : BT.709
Transfer characteristics    : BT.709
Matrix coefficients         : BT.709

Audio #1
ID                          : 2
Format                      : AC-3
Format/Info                 : Audio Coding 3
Commercial name             : Dolby Digital
Codec ID                    : A_AC3
Duration                    : 3 h 1 min
Bit rate mode               : Constant
Bit rate                    : 384 kb/s
Channel(s)                  : 6 channels
Channel layout              : L R C LFE Ls Rs
Sampling rate               : 48.0 kHz
Frame rate                  : 31.250 FPS (1536 SPF)
Bit depth                   : 16 bits
Compression mode            : Lossy
Stream size                 : 498 MiB (6%)
Title                       : Dub | DD 5.1 @ 384 kbps - iTunes
Language                    : Russian
Service kind                : Complete Main
Default                     : Yes
Forced                      : No

Audio #2
ID                          : 3
Format                      : AC-3
Format/Info                 : Audio Coding 3
Commercial name             : Dolby Digital
Codec ID                    : A_AC3
Duration                    : 3 h 1 min
Bit rate mode               : Constant
Bit rate                    : 448 kb/s
Channel(s)                  : 6 channels
Channel layout              : L R C LFE Ls Rs
Sampling rate               : 48.0 kHz
Frame rate                  : 31.250 FPS (1536 SPF)
Bit depth                   : 16 bits
Compression mode            : Lossy
Stream size                 : 581 MiB (7%)
Title                       : Original | DD 5.1 @ 448 kbps
Language                    : English
Service kind                : Complete Main
Default                     : No
Forced                      : No

Text #1
ID                          : 4
Format                      : UTF-8
Codec ID                    : S_TEXT/UTF8
Codec ID/Info               : UTF-8 Plain Text
Duration                    : 2 h 17 min
Bit rate                    : 1 b/s
Count of elements           : 34
Stream size                 : 1.14 KiB (0%)
Title                       : Forced
Language                    : Russian
Default                     : Yes
Forced                      : No

Text #2
ID                          : 5
Format                      : UTF-8
Codec ID                    : S_TEXT/UTF8
Codec ID/Info               : UTF-8 Plain Text
Duration                    : 2 h 49 min
Bit rate                    : 80 b/s
Count of elements           : 2222
Stream size                 : 100 KiB (0%)
Title                       : Ruf
Language                    : Russian
Default                     : No
Forced                      : No

Text #3
ID                          : 6
Format                      : UTF-8
Codec ID                    : S_TEXT/UTF8
Codec ID/Info               : UTF-8 Plain Text
Duration                    : 2 h 47 min
Bit rate                    : 49 b/s
Count of elements           : 2329
Stream size                 : 61.1 KiB (0%)
Title                       : Full
Language                    : English
Default                     : No
Forced                      : No

Menu
00:00:00.000                : :Глава 1
00:20:18.550                : :Глава 2
00:42:19.870                : :Глава 3
01:03:39.607                : :Глава 4
01:28:22.714                : :Глава 5
01:48:39.220                : :Глава 6
02:05:30.731                : :Глава 7
02:26:28.362                : :Глава 8
02:45:23.747                : :Глава 9
02:58:27.655                : :Глава 10




Скриншоты:
[+] Всего файлов в раздаче - 1:
Avengers Endgame (2019) BDRip-HEVC 1080p.mkv8.02 GB

Показать еще раздачи по запросу мстители:
2019-08-18 U Мстители: Финал / Avengers: Endgame (2019) WEBRip от Deadmauvlad | D | Open Matte | Локализованная версия 2.19 GB ↑ 16 ↓ 11
2019-08-18 U Мстители: Финал / Avengers: Endgame (2019) HDRip от Scarabey | iTunes 2.71 GB ↑ 48 ↓ 17
2019-08-16 U Мстители: Финал / Avengers: Endgame (2019) WEBRip 1080p | D, P | Open Matte | Локализованная версия 6.84 GB ↑ 149 ↓ 71
2019-08-09 U Мстители: Финал / Avengers: Endgame (2019) BDRip-HEVC 720p | D | iTunes 3.13 GB ↑ 64 ↓ 20
2019-08-07 U Мстители: Финал / Avengers: Endgame (2019) BDRip 1080p от qqss44 & MegaPeer | iTunes 9.63 GB ↑ 91 ↓ 71
2019-08-07 U Мстители: Финал / Avengers: Endgame (2019) BDRip 1080p от HELLYWOOD | iTunes 11.88 GB ↑ 225 ↓ 107
2019-08-05 U Мстители: Финал / Avengers: Endgame (2019) BDRip-AVC от HELLYWOOD | iTunes 2.83 GB ↑ 149 ↓ 57

Отзывы
Зарегистрируйтесь чтобы добавить комментарий.
Обратная связь
Copyleft ©