↑↓Torrent.by
Поиск
Логин: Регистрация
Пароль: Восстановить пароль

Гори, гори ясно / Brightburn (2019) WEB-DLRip-AVC от ExKinoRay | D, P

Скачать gori-yasno-brightburn-2019-web-dlrip-avc-ot-exkinoray-d-p.torrent
U Магнитная ссылка Размер: 745.95 MB Раздают: 75 Качают: 12 Добавлен: 2019-08-07 10:28:51
Гори, гори ясно / Brightburn (2019) WEB-DLRip-AVC от ExKinoRay | D, P

Название: Гори, гори ясно
Оригинальное название: Brightburn
Год выпуска: 2019
Жанр:  Ужасы, фантастика, триллер, драма
Режиссер: Дэвид Яровески
В ролях: Элизабет Бэнкс, Джексон А. Данн, Дэвид Денман, Дженнифер Холлэнд, Мэтт Джонс, Мередит Хагнер, Бекки Уолстром, Грегори Алан Уильямс, Стив Эйджи, Эмми Хантер

О фильме:
Семейная пара фермеров Тори и Кайл уже долго и безуспешно пытаются завести ребёнка, когда вдруг из космоса в близлежащий лес падает капсула с младенцем. Пара усыновляет малыша и растит его как своего собственного сына. Брэндон растёт послушным, хорошо учится в школе и никогда не болеет. Но по достижении 12 лет характер мальчика резко меняется — он начинает дерзить родителям, и в нём просыпаются незнакомые доселе желания и способности.

Страна: США
Студия: The H Collective
Продолжительность: 01:30:29
Перевод: Дублированный + профессиональный многоголосый

Файл
Формат: MKV
Качество: WEB-DLRip-AVC
Видео: MPEG-4 AVC, 768x320, - 998 Кбит/с
Аудио #1:  AAC-HE, 2 ch, ~ 76 Кбит/с | DUB - iTunes
Аудио #2:  AAC-HE, 2 ch, ~ 76 Кбит/с | MVO - «СВ Студия»
Субтитры: Русские (Forced, full), английские


[+] MI
Общее
Уникальный идентификатор : 100277389699035544952533309053435770729 (0x4B70B9069432E3B99DA2B6217869F769)
Полное имя : D:MOVIESBrightburn.2019.WEB-DLRip-AVC.ExKinoRay.mkv
Формат : Matroska
Версия формата : Version 4 / Version 2
Размер файла : 746 Мбайт
Продолжительность : 1 ч. 30 м.
Общий поток : 1152 Кбит/сек
Дата кодирования : UTC 2019-08-06 19:35:51
Программа кодирования : mkvmerge v35.0.0 ('All The Love In The World') 64-bit
Библиотека кодирования : libebml v1.3.9 + libmatroska v1.5.2

Видео
Идентификатор : 1
Формат : AVC
Формат/Информация : Advanced Video Codec
Профиль формата : High@L4.1
Параметр CABAC формата : Да
Параметр RefFrames формата : 12 кадров
Идентификатор кодека : V_MPEG4/ISO/AVC
Продолжительность : 1 ч. 30 м.
Битрейт : 998 Кбит/сек
Ширина : 768 пикселей
Высота : 320 пикселей
Соотношение сторон : 2,40:1
Режим частоты кадров : Постоянный
Частота кадров : 23,976 (24000/1001) кадра/сек
Цветовое пространство : YUV
Субдискретизация насыщенности : 4:2:0
Битовая глубина : 8 бит
Тип развёртки : Прогрессивная
Бит/(Пиксели*Кадры) : 0.169
Размер потока : 646 Мбайт (87%)
Библиотека кодирования : x264 core 152 r2851kMod ba24899
Настройки программы : cabac=1 / ref=12 / deblock=1:-2:-2 / analyse=0x3:0x133 / me=umh / subme=10 / psy=1 / fade_compensate=0.00 / psy_rd=1.00:0.10 / mixed_ref=1 / me_range=32 / chroma_me=1 / trellis=2 / 8x8dct=1 / cqm=0 / deadzone=21,11 / fast_pskip=0 / chroma_qp_offset=-3 / threads=6 / lookahead_threads=1 / sliced_threads=0 / nr=0 / decimate=0 / interlaced=0 / bluray_compat=0 / constrained_intra=0 / bframes=12 / b_pyramid=2 / b_adapt=2 / b_bias=0 / direct=3 / weightb=1 / open_gop=0 / weightp=2 / keyint=240 / keyint_min=23 / scenecut=40 / intra_refresh=0 / rc_lookahead=40 / rc=2pass / mbtree=1 / bitrate=998 / ratetol=1.0 / qcomp=0.60 / qpmin=0 / qpmax=69 / qpstep=4 / cplxblur=20.0 / qblur=0.5 / ip_ratio=1.40 / aq=3:1.00
Default : Да
Forced : Нет

Аудио #1
Идентификатор : 2
Формат : AAC
Формат/Информация : Advanced Audio Codec
Профиль формата : HE-AAC / LC
Идентификатор кодека : A_AAC
Продолжительность : 1 ч. 30 м.
Битрейт : 76,0 Кбит/сек
Каналы : 2 канала
Расположение каналов : Front: L R
Частота : 48,0 КГц / 24,0 КГц
Частота кадров : 23,438 кадра/сек (1024 SPF)
Метод сжатия : С потерями
Задержка видео : 31 мс.
Размер потока : 49,2 Мбайт (7%)
Язык : Russian
Default : Да
Forced : Нет

Аудио #2
Идентификатор : 3
Формат : AAC
Формат/Информация : Advanced Audio Codec
Профиль формата : HE-AAC / LC
Идентификатор кодека : A_AAC
Продолжительность : 1 ч. 30 м.
Битрейт : 76,0 Кбит/сек
Каналы : 2 канала
Расположение каналов : Front: L R
Частота : 48,0 КГц / 24,0 КГц
Частота кадров : 23,438 кадра/сек (1024 SPF)
Метод сжатия : С потерями
Задержка видео : 31 мс.
Размер потока : 49,2 Мбайт (7%)
Язык : Russian
Default : Нет
Forced : Нет

Текст #1
Идентификатор : 4
Формат : UTF-8
Идентификатор кодека : S_TEXT/UTF8
Идентификатор кодека/Информация : UTF-8 Plain Text
Продолжительность : 1 ч. 29 м.
Битрейт : 0 бит/сек
ElementCount : 10
Размер потока : 553 байт (0%)
Заголовок : Forced
Язык : Russian
Default : Да
Forced : Нет

Текст #2
Идентификатор : 5
Формат : UTF-8
Идентификатор кодека : S_TEXT/UTF8
Идентификатор кодека/Информация : UTF-8 Plain Text
Продолжительность : 1 ч. 29 м.
Битрейт : 60 бит/сек
ElementCount : 894
Размер потока : 39,7 Кбайт (0%)
Заголовок : Full
Язык : Russian
Default : Нет
Forced : Нет

Текст #3
Идентификатор : 6
Формат : UTF-8
Идентификатор кодека : S_TEXT/UTF8
Идентификатор кодека/Информация : UTF-8 Plain Text
Продолжительность : 1 ч. 27 м.
Битрейт : 42 бит/сек
ElementCount : 1035
Размер потока : 27,3 Кбайт (0%)
Заголовок : Full
Язык : English
Default : Нет
Forced : Нет

Текст #4
Идентификатор : 7
Формат : UTF-8
Идентификатор кодека : S_TEXT/UTF8
Идентификатор кодека/Информация : UTF-8 Plain Text
Продолжительность : 1 ч. 29 м.
Битрейт : 50 бит/сек
ElementCount : 1351
Размер потока : 33,3 Кбайт (0%)
Заголовок : SDH
Язык : English
Default : Нет
Forced : Нет

Меню
00:00:00.000 : en:1
00:03:20.700 : en:2
00:07:04.631 : en:3
00:12:30.790 : en:4
00:17:47.064 : en:5
00:24:23.168 : en:6
00:30:28.908 : en:7
00:38:06.782 : en:8
00:43:11.669 : en:9
00:49:25.792 : en:10
00:56:53.531 : en:11
01:00:12.353 : en:12
01:05:22.121 : en:13
01:08:16.086 : en:14
01:12:20.579 : en:15
01:17:28.887 : en:16



Скриншоты:
[+] Всего файлов в раздаче - 1:
Brightburn.2019.WEB-DLRip-AVC.ExKinoRay.mkv745.95 MB

Похожие раздачи по запросу - гори:
2019-10-07 U Гори, гори ясно / Brightburn (2019) BDRip от MegaPeer | Лицензия 1.46 GB ↑ 78 ↓ 17
2019-09-30 U Гори, гори ясно / Brightburn (2019) BDRip от MegaPeer | iTunes 1.42 GB ↑ 550 ↓ 49
2019-08-15 U Гори, гори ясно / Brightburn (2019) BDRip 1080p от селезень | D, P | iTunes 7.63 GB ↑ 294 ↓ 159
2019-08-07 U Гори, гори ясно / Brightburn (2019) WEB-DL 720p | iTunes 2.22 GB ↑ 254 ↓ 54
2019-08-07 U Гори, гори ясно / Brightburn (2019) WEB-DL 1080p | D, P 4.86 GB ↑ 276 ↓ 60
2019-06-27 U Гори, гори ясно / Brightburn (2019) WEBRip 1080p | СВ Студия 10.91 GB ↑ 250 ↓ 101

Отзывы
Зарегистрируйтесь чтобы добавить комментарий.
Обратная связь
Copyleft ©