↑↓Torrent.by
Поиск
Логин: Регистрация
Пароль: Восстановить пароль
Загрузка...

Королевский корги / The Queen's Corgi (2019) BDRemux 1080p от селезень | iTunes

Скачать korolevskiy-korgi-the-queen-s-corgi-2019-bdremux-1080p-ot-selezen-itunes.torrent
U Магнитная ссылка Размер: 19.21 GB Раздают: 31 Качают: 9 Добавлен: 2019-08-08 05:35:53
Королевский корги / The Queen's Corgi (2019) BDRemux 1080p от селезень | iTunes

Название: Королевский корги
Оригинальное название: The Queen's Corgi
Год выхода: 2019
Жанр: Мультфильм, приключения, семейный, детский, полнометражный
Режиссер: Винсент Кестелут, Бен Стассен
В ролях: Джек Уайтхолл, Джули Уолтерс, Том Кортни, Джон Калшоу, Ямал Фахим, Кулвиндер Гир, Сара Хэдлэнд, Тимоти Кристиан Джэнсен, Мэтт Лукас, Колин Макфарлэйн

О фильме: Любимая порода собак у очень богатых и влиятельных людей — это корги. Маленькие собачки полностью погружены в жизнь своих больших хозяев. Спасаясь от политических интриг, любимец Британской Королевы вынужден покинуть Букингемский дворец. Теперь ему предстоит не только познакомиться с тайной жизнью улиц Лондона, но и доказать, что он настоящий Королевский Корги…

Страна: Бельгия
Студия: Belga Productions, nWave Pictures
Продолжительность: 01:25:17
Перевод: Дублированный | iTunes

Качество: BDRemux 1080p
Видео: MPEG-4 AVC, 1920x1080, 28.8 Mbit/s, 24 fps
Звук:
Аудио #01: 48 kHz, AC3, 5.1, 384 Kbps | iTunes | RUS |
Аудио #02: 48 kHz, AC3, 5.1, 384 Kbps | iTunes | UKR |
Аудио #03: 48 kHz, DTS-HD MA, 5.1, 2659 Kbps | Оригинал |  ENG |
Субтитры: Русские (Full), английские

Релиз:


[+] MI
General
Unique ID                   : 120881531936439677350931799511120812960 (0x5AF0EFAB537C8CC9C7DD64989D151BA0)
Complete name               : D:Video111The.Queen's.Corgi.2019.BDREMUX.1080p.seleZen.mkv
Format                      : Matroska
Format version              : Version 4
File size                   : 19.2 GiB
Duration                    : 1 h 25 min
Overall bit rate mode       : Variable
Overall bit rate            : 32.2 Mb/s
Movie name                  : Th .Queen's Corgi 2019 from селезень
Encoded date                : UTC 2019-08-07 04:59:39
Writing application         : mkvmerge v22.0.0 ('At The End Of The World') 64-bit
Writing library             : libebml v1.3.5 + libmatroska v1.4.8

Video
ID                          : 1
Format                      : AVC
Format/Info                 : Advanced Video Codec
Format profile              : High@L4.1
Format settings             : CABAC / 4 Ref Frames
Format settings, CABAC      : Yes
Format settings, Reference  : 4 frames
Codec ID                    : V_MPEG4/ISO/AVC
Duration                    : 1 h 25 min
Bit rate mode               : Variable
Bit rate                    : 28.8 Mb/s
Maximum bit rate            : 38.0 Mb/s
Width                       : 1 920 pixels
Height                      : 1 080 pixels
Display aspect ratio        : 16:9
Frame rate mode             : Constant
Frame rate                  : 24.000 FPS
Color space                 : YUV
Chroma subsampling          : 4:2:0
Bit depth                   : 8 bits
Scan type                   : Progressive
Bits/(Pixel*Frame)          : 0.579
Stream size                 : 17.2 GiB (89%)
Language                    : English
Default                     : Yes
Forced                      : No

Audio #1
ID                          : 2
Format                      : AC-3
Format/Info                 : Audio Coding 3
Commercial name             : Dolby Digital
Codec ID                    : A_AC3
Duration                    : 1 h 25 min
Bit rate mode               : Constant
Bit rate                    : 384 kb/s
Channel(s)                  : 6 channels
Channel layout              : L R C LFE Ls Rs
Sampling rate               : 48.0 kHz
Frame rate                  : 31.250 FPS (1536 SPF)
Bit depth                   : 16 bits
Compression mode            : Lossy
Stream size                 : 234 MiB (1%)
Title                       : iTunes
Language                    : Russian
Service kind                : Complete Main
Default                     : Yes
Forced                      : Yes

Audio #2
ID                          : 3
Format                      : AC-3
Format/Info                 : Audio Coding 3
Commercial name             : Dolby Digital
Codec ID                    : A_AC3
Duration                    : 1 h 25 min
Bit rate mode               : Constant
Bit rate                    : 384 kb/s
Channel(s)                  : 6 channels
Channel layout              : L R C LFE Ls Rs
Sampling rate               : 48.0 kHz
Frame rate                  : 31.250 FPS (1536 SPF)
Bit depth                   : 16 bits
Compression mode            : Lossy
Stream size                 : 234 MiB (1%)
Title                       : iTunes
Language                    : Ukrainian
Service kind                : Complete Main
Default                     : No
Forced                      : No

Audio #3
ID                          : 4
Format                      : DTS XLL
Format/Info                 : Digital Theater Systems
Commercial name             : DTS-HD Master Audio
Codec ID                    : A_DTS
Duration                    : 1 h 25 min
Bit rate mode               : Variable
Bit rate                    : 2 659 kb/s
Channel(s)                  : 6 channels
Channel layout              : C L R Ls Rs LFE
Sampling rate               : 48.0 kHz
Frame rate                  : 93.750 FPS (512 SPF)
Bit depth                   : 16 bits
Compression mode            : Lossless
Stream size                 : 1.58 GiB (8%)
Title                       : Original
Language                    : English
Default                     : No
Forced                      : No

Text #1
ID                          : 5
Format                      : UTF-8
Codec ID                    : S_TEXT/UTF8
Codec ID/Info               : UTF-8 Plain Text
Duration                    : 1 h 20 min
Bit rate                    : 90 b/s
Count of elements           : 953
Stream size                 : 53.4 KiB (0%)
Title                       : Full
Language                    : Russian
Default                     : No
Forced                      : No

Text #2
ID                          : 6
Format                      : UTF-8
Codec ID                    : S_TEXT/UTF8
Codec ID/Info               : UTF-8 Plain Text
Duration                    : 1 h 18 min
Bit rate                    : 56 b/s
Count of elements           : 999
Stream size                 : 32.6 KiB (0%)
Title                       : Full
Language                    : English
Default                     : No
Forced                      : No

Menu
00:00:00.000                : en:Chapter 01
00:07:42.333                : en:Chapter 02
00:14:50.708                : en:Chapter 03
00:22:13.375                : en:Chapter 04
00:29:44.458                : en:Chapter 05
00:35:05.458                : en:Chapter 06
00:40:40.000                : en:Chapter 07
00:48:05.000                : en:Chapter 08
00:55:05.667                : en:Chapter 09
01:03:00.542                : en:Chapter 10
01:10:06.083                : en:Chapter 11
01:16:11.792                : en:Chapter 12



Скриншоты:
[+] Всего файлов в раздаче - 1:

Показать еще раздачи по запросу королевский:
2019-08-10 U Королевский корги / The Queen's Corgi (2019) BDRip-AVC от ExKinoRay | iTunes 1.86 GB ↑ 84 ↓ 19
2019-08-09 U Королевский корги / The Queen's Corgi (2019) BDRip 1080p от Ash61 | 3D-Video | halfOU | iTunes 5.91 GB ↑ 25 ↓ 11
2019-08-08 U Королевский корги / The Queen's Corgi (2019) BDRip-HEVC 1080p | iTunes 5.37 GB ↑ 43 ↓ 9
2019-08-07 U Королевский корги / The Queen's Corgi (2019) BDRip 1080p от селезень | iTunes 7.90 GB ↑ 315 ↓ 190
2019-08-07 U Королевский корги / The Queen's Corgi (2019) BDRip от MegaPeer | iTunes 1.42 GB ↑ 722 ↓ 220
2019-08-07 U Королевский корги / The Queen's Corgi (2019) BDRip 720p от селезень | iTunes 3.83 GB ↑ 80 ↓ 52
2019-07-22 U Королевский квест 5: Симфония смерти / Queen's Quest 5: Symphony of Death (2019) PC 777.43 MB ↑ 126 ↓ 19

Отзывы
Зарегистрируйтесь чтобы добавить комментарий.
Обратная связь
Copyleft ©