↑↓Torrent.by
Поиск
Логин: Регистрация
Пароль: Восстановить пароль
Загрузка...

Курск / Kursk (2018) BDRip 720p от ExKinoRay | iTunes

Скачать kursk-2018-bdrip-720p-ot-exkinoray-itunes.torrent
U Магнитная ссылка Размер: 3.50 GB Раздают: 177 Качают: 86 Добавлен: 2019-08-08 18:54:47
Курск / Kursk (2018) BDRip 720p от ExKinoRay | iTunes

Название: Курск
Оригинальное название: Kursk
Год выпуска: 2018
Жанр: Боевик, триллер, драма, история
Режиссер: Томас Винтерберг
В ролях: Леа Сейду, Колин Фёрт, Маттиас Шонартс, Микаэл Нюквист, Макс фон Сюдов, Аугуст Диль, Стивен Вэддингтон, Маттиас Швайгхефер, Пернилла Аугуст, Златко Бурич

Описание:  
Фильм о событиях 2000 года, связанных с подлодкой «Курск». Вся правда о мужестве и стойкости российских подводников, о разногласиях и взаимопомощи, конфликтах и единении, о преданности и любви.

Страна: Бельгия, Люксембург
Студия: Belga Productions, VIA EST
Продолжительность: 01:57:37
Перевод: Дублированный | iTunes

БЕЗ КАКОЙ-ЛИБО РЕКЛАМЫ!

Формат: MKV
Качество: BDRip 720р
Видео: MPEG-4 AVC, 1280x536 (2.40:1), 24.000 fps, 3878 Kbps, 0.236 bit/pixel
Аудио: 48 kHz, AC3, 5.1, 384 Kbps | iTunes | RUS |
Субтитры: Русские, английские

Релиз:

Автор релиза:


[+] ОтчетМедиаИнфо

General
Unique ID                                : 228565135087248748463982871138323225751 (0xABF40B35DEC7F038AA4931EA8D195C97)
Complete name                            : F:Kursk.2018.iTune.BDRip.720p.ExKinoRay.mkv
Format                                   : Matroska
Format version                           : Version 2
File size                                : 3.50 GiB
Duration                                 : 1 h 57 min
Overall bit rate                         : 4 257 kb/s
Movie name                               : Kursk 2018 from ExKinoray
Encoded date                             : UTC 2019-08-08 02:06:13
Writing application                      : mkvmerge v5.6.0 ('Kenya Kane') built on May 27 2012 16:44:04
Writing library                          : libebml v1.2.3 + libmatroska v1.3.0

Video
ID                                       : 1
Format                                   : AVC
Format/Info                              : Advanced Video Codec
Format profile                           : High@L4.1
Format settings, CABAC                   : Yes
Format settings, ReFrames                : 12 frames
Codec ID                                 : V_MPEG4/ISO/AVC
Duration                                 : 1 h 57 min
Bit rate                                 : 3 878 kb/s
Width                                    : 1 280 pixels
Height                                   : 536 pixels
Display aspect ratio                     : 2.40:1
Frame rate mode                          : Constant
Frame rate                               : 24.000 FPS
Color space                              : YUV
Chroma subsampling                       : 4:2:0
Bit depth                                : 8 bits
Scan type                                : Progressive
Bits/(Pixel*Frame)                       : 0.236
Stream size                              : 3.11 GiB (89%)
Title                                    : Enigma
Writing library                          : x264 core 148 r2638 7599210
Encoding settings                        : cabac=1 / ref=12 / deblock=1:-2:-2 / analyse=0x3:0x113 / me=umh / subme=11 / psy=1 / psy_rd=0.98:0.05 / mixed_ref=1 / me_range=32 / chroma_me=1 / trellis=2 / 8x8dct=1 / cqm=0 / deadzone=21,11 / fast_pskip=0 / chroma_qp_offset=-3 / threads=12 / lookahead_threads=3 / sliced_threads=0 / nr=0 / decimate=1 / interlaced=0 / bluray_compat=0 / constrained_intra=0 / bframes=10 / b_pyramid=2 / b_adapt=2 / b_bias=0 / direct=3 / weightb=1 / open_gop=0 / weightp=2 / keyint=240 / keyint_min=24 / scenecut=40 / intra_refresh=0 / rc_lookahead=40 / rc=2pass / mbtree=0 / bitrate=3878 / ratetol=1.0 / qcomp=0.60 / qpmin=0 / qpmax=51 / qpstep=4 / cplxblur=20.0 / qblur=0.5 / vbv_maxrate=50000 / vbv_bufsize=62500 / nal_hrd=none / filler=0 / ip_ratio=1.40 / pb_ratio=1.30 / aq=2:0.80
Default                                  : Yes
Forced                                   : No
Color range                              : Limited
Color primaries                          : BT.709
Transfer characteristics                 : BT.709
Matrix coefficients                      : BT.709

Audio
ID                                       : 2
Format                                   : AC-3
Format/Info                              : Audio Coding 3
Mode extension                           : CM (complete main)
Format settings, Endianness              : Big
Codec ID                                 : A_AC3
Duration                                 : 1 h 57 min
Bit rate mode                            : Constant
Bit rate                                 : 384 kb/s
Channel(s)                               : 6 channels
Channel positions                        : Front: L C R, Side: L R, LFE
Sampling rate                            : 48.0 kHz
Frame rate                               : 31.250 FPS (1536 spf)
Compression mode                         : Lossy
Stream size                              : 323 MiB (9%)
Title                                    : iTunes
Language                                 : Russian
Default                                  : Yes
Forced                                   : No

Text #1
ID                                       : 3
Format                                   : UTF-8
Codec ID                                 : S_TEXT/UTF8
Codec ID/Info                            : UTF-8 Plain Text
Title                                    : Forced
Language                                 : Russian
Default                                  : Yes
Forced                                   : No

Text #2
ID                                       : 4
Format                                   : UTF-8
Codec ID                                 : S_TEXT/UTF8
Codec ID/Info                            : UTF-8 Plain Text
Title                                    : Full
Language                                 : Russian
Default                                  : No
Forced                                   : No

Text #3
ID                                       : 5
Format                                   : UTF-8
Codec ID                                 : S_TEXT/UTF8
Codec ID/Info                            : UTF-8 Plain Text
Title                                    : Full
Language                                 : English
Default                                  : No
Forced                                   : No

Menu
00:00:00.000                             : :Chapter 01
00:10:35.000                             : :Chapter 02
00:20:02.000                             : :Chapter 03
00:31:43.000                             : :Chapter 04
00:38:38.000                             : :Chapter 05
00:48:32.000                             : :Chapter 06
00:59:55.000                             : :Chapter 07
01:08:57.000                             : :Chapter 08
01:18:16.000                             : :Chapter 09
01:28:53.000                             : :Chapter 10
01:38:18.000                             : :Chapter 11
01:47:32.000                             : :Chapter 12




Скриншоты:
[+] Всего файлов в раздаче - 1:
Kursk.2018.iTune.BDRip.720p.ExKinoRay.mkv3.50 GB

Показать еще раздачи по запросу курск:
Вчера U Курск / Kursk (2018) BDRip от Twister & ExKinoRay | iTunes 2.13 GB ↑ 17 ↓ 8
2019-08-09 U Курск / Kursk (2018) BDRip-HEVC 1080p | D, P | iTunes 7.01 GB ↑ 46 ↓ 14
2019-08-08 U Курск / Kursk (2018) BDRip от MegaPeer | iTunes 1.41 GB ↑ 202 ↓ 71
2019-03-16 U Курск / Kursk (2018) BDRemux 1080p | HDRezka Studio 26.03 GB ↑ 221 ↓ 216
2019-03-16 U Курск / Kursk (2018) BDRip от GeneralFilm | HDRezka Studio 1.46 GB ↑ 378 ↓ 94
2019-03-16 U Курск / Kursk (2018) HDRip | HDRezka Studio 2.18 GB ↑ 54 ↓ 14
2019-03-16 U Курск / Kursk (2018) BDRip 720p от Scarabey | HDRezka Studio 4.65 GB ↑ 193 ↓ 46

Отзывы
Зарегистрируйтесь чтобы добавить комментарий.
Обратная связь
Copyleft ©