↑↓Torrent.by
Поиск
Логин: Регистрация
Пароль: Восстановить пароль
Загрузка...

Скин / Skin (2018) WEB-DLRip-AVC от ExKinoRay | iTunes

Скачать skin-2018-web-dlrip-avc-ot-exkinoray-itunes.torrent
U Магнитная ссылка Размер: 1.94 GB Раздают: 118 Качают: 39 Добавлен: 2019-08-08 18:55:10
Скин / Skin (2018) WEB-DLRip-AVC от ExKinoRay | iTunes

Название: Скин
Оригинальное название: Skin
Год выхода: 2019
Жанр:  драма, биография
Режиссер: Гай Наттив
В ролях: Джейми Белл, Даниэль Макдональд, Дэниэл Хеншэлл, Билл Кэмп, Луиза Краузе, Зои Маргарет Коллетти, Кайли Роджерс, Колби Ганнетт, Майк Колтер, Вера Фармига

О фильме:
Что может быть страшнее, ребенка, воспитанного среди общества, которое признает только белых людей, их превосходство. Это дитя, не знающее сострадания, воспитанное расистами и скинхедами. Фильм повествует о жестокой стычке между расистами и афро-американцами. Во главе банды скинхедов стоит пара средних лет, с татуировками по всему телу. Главный герой помимо татуировок полностью бреется на лысо, периодически садится в тюрьму за избиения и хулиганство.

Страна: США
Студия: Maven Pictures, TUGAWOOD Pictures, Allusionist Picture House
Продолжительность: 01:58:18
Перевод: Дублированный | iTunes
Субтитры: Русские, английские

Формат: MKV
Качество: WEB-DLRip-AVC
Видео: MPEG-4 AVC, 1024x428 (2.40:1), 23.976 fps, 1574 Kbps, 0.150 bit/pixel
Аудио #01: 48 kHz, AC3, 5.1, 384 Kbps | iTunes | RUS |
Аудио #02: 48 kHz, AC3, 5.1, 384 Kbps | Оригинал |  ENG |

Релиз:

Автор релиза:


[+] ОтчетМедиаИнфо

General
Unique ID                                : 187689625933883880620965291054373703023 (0x8D33B5036FCEB284A8317F7C47FE8D6F)
Complete name                            : C:Skin.2018.AVC.ExKinoRay.mkv
Format                                   : Matroska
Format version                           : Version 2
File size                                : 1.94 GiB
Duration                                 : 1 h 58 min
Overall bit rate                         : 2 344 kb/s
Movie name                               : Skin 2018 from ExKinoRay
Encoded date                             : UTC 2019-08-07 20:42:09
Writing application                      : mkvmerge v5.6.0 ('Kenya Kane') built on May 27 2012 16:44:04
Writing library                          : libebml v1.2.3 + libmatroska v1.3.0
Cover                                    : Yes
Attachments                              : small_cover.jpg / small_cover_land.jpg / cover.jpg / cover_land.jpg

Video
ID                                       : 1
Format                                   : AVC
Format/Info                              : Advanced Video Codec
Format profile                           : High@L4.1
Format settings, CABAC                   : Yes
Format settings, ReFrames                : 11 frames
Codec ID                                 : V_MPEG4/ISO/AVC
Duration                                 : 1 h 58 min
Bit rate                                 : 1 574 kb/s
Width                                    : 1 024 pixels
Height                                   : 428 pixels
Display aspect ratio                     : 2.40:1
Frame rate mode                          : Constant
Frame rate                               : 23.976 (23976/1000) FPS
Color space                              : YUV
Chroma subsampling                       : 4:2:0
Bit depth                                : 8 bits
Scan type                                : Progressive
Bits/(Pixel*Frame)                       : 0.150
Stream size                              : 1.26 GiB (65%)
Title                                    : Enigma
Writing library                          : x264 core 152 r2851 ba24899
Encoding settings                        : cabac=1 / ref=11 / deblock=1:-2:-2 / analyse=0x3:0x113 / me=umh / subme=10 / psy=1 / psy_rd=1.04:0.10 / mixed_ref=1 / me_range=32 / chroma_me=1 / trellis=2 / 8x8dct=1 / cqm=0 / deadzone=21,11 / fast_pskip=0 / chroma_qp_offset=-3 / threads=12 / lookahead_threads=3 / sliced_threads=0 / nr=0 / decimate=0 / interlaced=0 / bluray_compat=0 / constrained_intra=0 / bframes=10 / b_pyramid=2 / b_adapt=2 / b_bias=0 / direct=3 / weightb=1 / open_gop=0 / weightp=2 / keyint=240 / keyint_min=23 / scenecut=40 / intra_refresh=0 / rc=2pass / mbtree=0 / bitrate=1574 / ratetol=1.0 / qcomp=0.60 / qpmin=0 / qpmax=51 / qpstep=4 / cplxblur=20.0 / qblur=0.5 / ip_ratio=1.30 / pb_ratio=1.20 / aq=3:0.80
Language                                 : English
Default                                  : Yes
Forced                                   : No
Color range                              : Limited
Color primaries                          : BT.709
Transfer characteristics                 : BT.709
Matrix coefficients                      : BT.709

Audio #1
ID                                       : 2
Format                                   : AC-3
Format/Info                              : Audio Coding 3
Mode extension                           : CM (complete main)
Format settings, Endianness              : Big
Codec ID                                 : A_AC3
Duration                                 : 1 h 58 min
Bit rate mode                            : Constant
Bit rate                                 : 384 kb/s
Channel(s)                               : 6 channels
Channel positions                        : Front: L C R, Side: L R, LFE
Sampling rate                            : 48.0 kHz
Frame rate                               : 31.250 FPS (1536 spf)
Compression mode                         : Lossy
Stream size                              : 325 MiB (16%)
Title                                    : iTunes
Language                                 : Russian
Default                                  : No
Forced                                   : No

Audio #2
ID                                       : 3
Format                                   : AC-3
Format/Info                              : Audio Coding 3
Mode extension                           : CM (complete main)
Format settings, Endianness              : Big
Codec ID                                 : A_AC3
Duration                                 : 1 h 58 min
Bit rate mode                            : Constant
Bit rate                                 : 384 kb/s
Channel(s)                               : 6 channels
Channel positions                        : Front: L C R, Side: L R, LFE
Sampling rate                            : 48.0 kHz
Frame rate                               : 31.250 FPS (1536 spf)
Compression mode                         : Lossy
Stream size                              : 325 MiB (16%)
Language                                 : English
Default                                  : No
Forced                                   : No

Text #1
ID                                       : 4
Format                                   : UTF-8
Codec ID                                 : S_TEXT/UTF8
Codec ID/Info                            : UTF-8 Plain Text
Language                                 : Russian
Default                                  : No
Forced                                   : No

Text #2
ID                                       : 5
Format                                   : UTF-8
Codec ID                                 : S_TEXT/UTF8
Codec ID/Info                            : UTF-8 Plain Text
Title                                    : Full
Language                                 : English
Default                                  : No
Forced                                   : No

Text #3
ID                                       : 6
Format                                   : UTF-8
Codec ID                                 : S_TEXT/UTF8
Codec ID/Info                            : UTF-8 Plain Text
Title                                    : SDH
Language                                 : English
Default                                  : No
Forced                                   : No

Menu
00:00:00.000                             : en:1
00:05:39.756                             : en:2
00:13:29.559                             : en:3
00:19:48.521                             : en:4
00:30:16.065                             : en:5
00:36:30.898                             : en:6
00:43:50.671                             : en:7
00:46:30.497                             : en:8
00:56:32.765                             : en:9
01:05:21.168                             : en:10
01:09:53.148                             : en:11
01:21:29.636                             : en:12
01:26:41.405                             : en:13
01:36:38.417                             : en:14
01:42:09.789                             : en:15
01:47:17.054                             : en:16




Скриншоты:
[+] Всего файлов в раздаче - 1:
Skin.2018.AVC.ExKinoRay.mkv1.94 GB

Похожие раздачи по запросу - скин:
2019-08-08 U Скин / Skin (2018) WEB-DL 1080p от ExKinoRay | iTunes 4.40 GB ↑ 392 ↓ 151
2019-08-08 U Скин / Skin (2018) WEB-DLRip от MegaPeer | iTunes 1К1.46 GB ↑ 61 ↓ 11

Отзывы
Зарегистрируйтесь чтобы добавить комментарий.
Обратная связь
Copyleft ©