↑↓Torrent.by
Поиск
Логин: Регистрация
Пароль: Восстановить пароль
Загрузка...

Курск / Kursk (2018) BDRip-HEVC 1080p | D, P | iTunes

Скачать kursk-2018-bdrip-hevc-1080p-d-p-itunes.torrent
U Магнитная ссылка Размер: 7.01 GB Раздают: 46 Качают: 14 Добавлен: 2019-08-09 05:36:59
Курск / Kursk (2018) BDRip-HEVC 1080p | D, P | iTunes

Название: Курск
Оригинальное название: Kursk
Год выхода: 2018
Жанр: триллер, драма, история

Режиссер: Томас Винтерберг

В ролях: Маттиас Шонартс, Леа Сейду, Петер Симонишек, Аугуст Диль, Макс фон Сюдов, Колин Фёрт, Бьярне Хенриксен, Маунус Миллан, Артемий Спиридонов, Йоэль Басман

О фильме:
Фильм о событиях 2000 года, связанных с подлодкой «Курск». Вся правда о мужестве и стойкости российских подводников, о разногласиях и взаимопомощи, конфликтах и единении, о преданности и любви.

Страна: Бельгия, Люксембург
Продолжительность: 01:57:38
Перевод:
#1 Профессиональный (дублированный) | iTunes
#2 Профессиональный (многоголосый, закадровый) | HDRezka Studio

Файл
Кодек: H.265
Качество: BDRip-HEVC 1080p
Видео: HEVC, 1920x800 (2,40:1), 24.000 fps, 5993 Кбит/сек, 10 бит
Аудио 1: AC-3, 48,0 КГц, 6 ch, 384 Кбит/сек | RUS (iTunes)
Аудио 2: AC-3, 48,0 КГц, 6 ch, 640 Кбит/сек | RUS (HDRezka Studio) [Монтаж 5.1 - karasidi]
Аудио 3: DTS, 48,0 КГц, 6 ch, 1509 Кбит/сек | ENG
Субтитры: Русские (форс., полные), Английские (полные)


[+] MI
General
Unique ID                                : 225900348672133364265756496150580591768 (0xA9F2D318B11DCEE4BCCF308B20527C98)
Complete name                            : Kursk.2018.BDRip.1080p.H.265.mkv
Format                                   : Matroska
Format version                           : Version 4
File size                                : 7.01 GiB
Duration                                 : 1 h 57 min
Overall bit rate                         : 8 529 kb/s
Encoded date                             : UTC 2019-08-07 21:30:15
Writing application                      : mkvmerge v8.3.0 ('Over the Horizon') 64bit
Writing library                          : libebml v1.3.1 + libmatroska v1.4.2

Video
ID                                       : 1
Format                                   : HEVC
Format/Info                              : High Efficiency Video Coding
Format profile                           : Main 10@L4.1@High
Codec ID                                 : V_MPEGH/ISO/HEVC
Duration                                 : 1 h 57 min
Bit rate                                 : 5 993 kb/s
Width                                    : 1 920 pixels
Height                                   : 800 pixels
Display aspect ratio                     : 2.40:1
Frame rate mode                          : Constant
Frame rate                               : 24.000 FPS
Color space                              : YUV
Chroma subsampling                       : 4:2:0
Bit depth                                : 10 bits
Bits/(Pixel*Frame)                       : 0.163
Stream size                              : 4.92 GiB (70%)
Writing library                          : x265 3.0+1-ed72af837053:[Windows][GCC 8.2.0][64 bit] 10bit
Encoding settings                        : cpuid=1111039 / frame-threads=4 / numa-pools=14,14 / wpp / pmode / no-pme / no-psnr / no-ssim / log-level=2 / input-csp=1 / input-res=1920x800 / interlace=0 / total-frames=169385 / level-idc=41 / high-tier=1 / uhd-bd=0 / ref=3 / no-allow-non-conformance / no-repeat-headers / annexb / no-aud / no-hrd / info / hash=0 / no-temporal-layers / open-gop / min-keyint=24 / keyint=240 / gop-lookahead=0 / bframes=4 / b-adapt=2 / b-pyramid / bframe-bias=0 / rc-lookahead=20 / lookahead-slices=5 / scenecut=40 / radl=0 / no-splice / no-intra-refresh / ctu=32 / min-cu-size=8 / no-rect / no-amp / max-tu-size=32 / tu-inter-depth=1 / tu-intra-depth=1 / limit-tu=0 / rdoq-level=0 / dynamic-rd=0.00 / no-ssim-rd / signhide / no-tskip / nr-intra=0 / nr-inter=0 / no-constrained-intra / no-strong-intra-smoothing / max-merge=2 / limit-refs=0 / no-limit-modes / me=2 / subme=5 / merange=32 / temporal-mvp / weightp / no-weightb / no-analyze-src-pics / deblock=-3:-3 / no-sao / no-sao-non-deblock / rd=3 / no-early-skip / rskip / no-fast-intra / no-tskip-fast / no-cu-lossless / no-b-intra / no-splitrd-skip / rdpenalty=0 / psy-rd=2.00 / psy-rdoq=0.00 / no-rd-refine / no-lossless / cbqpoffs=0 / crqpoffs=0 / rc=crf / crf=16.0 / qcomp=0.60 / qpstep=4 / stats-write=0 / stats-read=0 / vbv-maxrate=50000 / vbv-bufsize=50000 / vbv-init=0.9 / crf-max=0.0 / crf-min=0.0 / ipratio=1.40 / pbratio=1.30 / aq-mode=3 / aq-strength=0.95 / cutree / zone-count=0 / no-strict-cbr / qg-size=32 / no-rc-grain / qpmax=69 / qpmin=0 / no-const-vbv / sar=0 / overscan=0 / videoformat=5 / range=0 / colorprim=1 / transfer=1 / colormatrix=1 / chromaloc=0 / display-window=0 / max-cll=0,0 / min-luma=0 / max-luma=1023 / log2-max-poc-lsb=8 / vui-timing-info / vui-hrd-info / slices=1 / no-opt-qp-pps / no-opt-ref-list-length-pps / no-multi-pass-opt-rps / scenecut-bias=0.05 / no-opt-cu-delta-qp / no-aq-motion / no-hdr / no-hdr-opt / no-dhdr10-opt / no-idr-recovery-sei / analysis-reuse-level=5 / scale-factor=0 / refine-intra=0 / refine-inter=0 / refine-mv=0 / refine-ctu-distortion=0 / no-limit-sao / ctu-info=0 / no-lowpass-dct / refine-analysis-type=0 / copy-pic=1 / max-ausize-factor=1.0 / no-dynamic-refine / no-single-sei / no-hevc-aq / qp-adaptation-range=1.00
Language                                 : English
Default                                  : Yes
Forced                                   : No
Color range                              : Limited
Color primaries                          : BT.709
Transfer characteristics                 : BT.709
Matrix coefficients                      : BT.709

Audio #1
ID                                       : 2
Format                                   : AC-3
Format/Info                              : Audio Coding 3
Commercial name                          : Dolby Digital
Codec ID                                 : A_AC3
Duration                                 : 1 h 57 min
Bit rate mode                            : Constant
Bit rate                                 : 384 kb/s
Channel(s)                               : 6 channels
Channel layout                           : L R C LFE Ls Rs
Sampling rate                            : 48.0 kHz
Frame rate                               : 31.250 FPS (1536 SPF)
Bit depth                                : 16 bits
Compression mode                         : Lossy
Stream size                              : 323 MiB (4%)
Title                                    : DUB (iTunes)
Language                                 : Russian
Default                                  : Yes
Forced                                   : No

Audio #2
ID                                       : 3
Format                                   : AC-3
Format/Info                              : Audio Coding 3
Commercial name                          : Dolby Digital
Codec ID                                 : A_AC3
Duration                                 : 1 h 57 min
Bit rate mode                            : Constant
Bit rate                                 : 640 kb/s
Channel(s)                               : 6 channels
Channel layout                           : L R C LFE Ls Rs
Sampling rate                            : 48.0 kHz
Frame rate                               : 31.250 FPS (1536 SPF)
Bit depth                                : 16 bits
Compression mode                         : Lossy
Stream size                              : 538 MiB (8%)
Title                                    : MVO [HDRezka Studio]
Language                                 : Russian
Default                                  : No
Forced                                   : No

Audio #3
ID                                       : 4
Format                                   : DTS
Format/Info                              : Digital Theater Systems
Codec ID                                 : A_DTS
Duration                                 : 1 h 57 min
Bit rate mode                            : Constant
Bit rate                                 : 1 509 kb/s
Channel(s)                               : 6 channels
Channel layout                           : C L R Ls Rs LFE
Sampling rate                            : 48.0 kHz
Frame rate                               : 93.750 FPS (512 SPF)
Bit depth                                : 24 bits
Compression mode                         : Lossy
Stream size                              : 1.24 GiB (18%)
Language                                 : English
Default                                  : No
Forced                                   : No

Text #1
ID                                       : 5
Format                                   : UTF-8
Codec ID                                 : S_TEXT/UTF8
Codec ID/Info                            : UTF-8 Plain Text
Duration                                 : 9 s 0 ms
Bit rate                                 : 90 b/s
Count of elements                        : 1
Stream size                              : 102 Bytes (0%)
Title                                    : Forced
Language                                 : Russian
Default                                  : Yes
Forced                                   : No

Text #2
ID                                       : 6
Format                                   : UTF-8
Codec ID                                 : S_TEXT/UTF8
Codec ID/Info                            : UTF-8 Plain Text
Duration                                 : 1 h 48 min
Bit rate                                 : 70 b/s
Count of elements                        : 1076
Stream size                              : 56.2 KiB (0%)
Title                                    : Full
Language                                 : Russian
Default                                  : No
Forced                                   : No

Text #3
ID                                       : 7
Format                                   : UTF-8
Codec ID                                 : S_TEXT/UTF8
Codec ID/Info                            : UTF-8 Plain Text
Duration                                 : 1 h 48 min
Bit rate                                 : 41 b/s
Count of elements                        : 1154
Stream size                              : 32.7 KiB (0%)
Title                                    : Full
Language                                 : English
Default                                  : No
Forced                                   : No

Menu
00:00:00.000                             : :Chapter 01
00:10:34.458                             : :Chapter 02
00:20:02.125                             : :Chapter 03
00:31:43.208                             : :Chapter 04
00:38:37.458                             : :Chapter 05
00:48:32.125                             : :Chapter 06
00:59:55.166                             : :Chapter 07
01:08:57.250                             : :Chapter 08
01:18:15.458                             : :Chapter 09
01:28:53.208                             : :Chapter 10
01:38:17.875                             : :Chapter 11
01:47:31.416                             : :Chapter 12



Скриншоты:
[+] Всего файлов в раздаче - 1:
Kursk.2018.BDRip.1080p.H.265.mkv7.01 GB

Показать еще раздачи по запросу курск:
Вчера U Курск / Kursk (2018) BDRip от Twister & ExKinoRay | iTunes 2.13 GB ↑ 17 ↓ 8
2019-08-08 U Курск / Kursk (2018) BDRip 720p от ExKinoRay | iTunes 3.50 GB ↑ 177 ↓ 86
2019-08-08 U Курск / Kursk (2018) BDRip от MegaPeer | iTunes 1.41 GB ↑ 202 ↓ 71
2019-03-16 U Курск / Kursk (2018) BDRemux 1080p | HDRezka Studio 26.03 GB ↑ 221 ↓ 216
2019-03-16 U Курск / Kursk (2018) BDRip от GeneralFilm | HDRezka Studio 1.46 GB ↑ 379 ↓ 94
2019-03-16 U Курск / Kursk (2018) HDRip | HDRezka Studio 2.18 GB ↑ 54 ↓ 14
2019-03-16 U Курск / Kursk (2018) BDRip 720p от Scarabey | HDRezka Studio 4.65 GB ↑ 193 ↓ 46

Отзывы
Зарегистрируйтесь чтобы добавить комментарий.
Обратная связь
Copyleft ©