↑↓Torrent.by
Поиск
Логин: Регистрация
Пароль: Восстановить пароль
Загрузка...

Экспроприатор [01-08 из 16] (2019) HDTVRip от GeneralFilm

Скачать ekspropriator-01-08-iz-16-2019-hdtvrip-ot-generalfilm.torrent
U Магнитная ссылка Размер: 4.98 GB Раздают: 32 Качают: 32 Добавлен: 2019-08-09 05:37:20
Экспроприатор [01-08 из 16] (2019) HDTVRip от GeneralFilm

Год выпуска: 2019
Жанр:  Криминал, триллер
Выпущено: Россия, Фаворит фильм
Режиссер: Владимир Краснопольский
В ролях: Артём Ткаченко, Артемий Шаффер, Павел Меленчук, Анна Табанина, Алексей Фатеев, Евгений Князев, Юрий Беляев, Соня Кравчук, Татьяна Абрамова, Анна Миклош, Наталья Круглова, Алексей Шевченков, Игорь Филиппов, Михаил Богдасаров, Егор Бакулин, Татьяна Чердынцева, Рамис Ибрагимов, Константин Глушков, Игорь Денисов, Евгения Любимова, Кирилл Продолятченко, Аркадий Коваль, Дмитрий Сутырин, Владимир Богданов, Сергей Русскин, Андрей Мокеев, Ольга Онищенко, Игорь Головин, Пётр Логачёв, Василий Щипицын, Михаил Касапов, Александр Демич (II), Олег Сенченко, Сергей Гамов, Светлана Селезнёва, Николай Иванов, Сергей Жукович, Вячеслав Павлють, Дмитрий Быковский-Ромашов, Олег Ткачёв, Сергей Власов (II)

О фильме: 1962 год. Молодой и удачливый вор Юрка-Барон, провернув очередную квартирную кражу, едет из Ленинграда в Москву, чтобы встретить с человеком из своего далёкого и страшного прошлого. В поезде он вспоминает свою жизнь, которая наверняка сложилась бы по-другому — если б не война, не репрессии и не родство матери с персональным шофёром Ленина, имевшим неосторожность написать крамольную рукопись…

Качество: HDTVRip
Видео: XviD, ~ 1600 Кбит/с, 720х400, 25 кадр/с
Аудио: Русский (AC3, 2 ch, 192 Кбит/с)
Продолжительность: 8 х ~ 00:50:00
Перевод: Не требуется
Субтитры: нет

Релиз:


[+] MediaInfo

Общее
Полное имя                               : D:Jekspropriator.HDTVRip.GeneralFilm1.Jekspropriator.HDTVRip.GeneralFilm.avi
Формат                                   : AVI
Формат/Информация                        : Audio Video Interleave
Размер файла                             : 645 Мбайт
Продолжительность                        : 50 м. 24 с.
Общий поток                              : 1789 Кбит/сек
Программа кодирования                    : VirtualDubMod 1.5.10.3 | www.virtualdub-fr.org || (build 2550/release)
Библиотека кодирования                   : VirtualDubMod build 2550/release

Видео
Идентификатор                            : 0
Формат                                   : MPEG-4 Visual
Профиль формата                          : Advanced Simple@L5
Параметр BVOP формата                    : 1
Параметр QPel формата                    : Нет
Параметр GMC формата                     : Без точки перехода
Параметр матрицы формата                 : Выборочная
Идентификатор кодека                     : XVID
Идентификатор кодека/Подсказка           : XviD
Продолжительность                        : 50 м. 24 с.
Битрейт                                  : 1587 Кбит/сек
Ширина                                   : 720 пикселей
Высота                                   : 400 пикселей
Соотношение сторон                       : 16:9
Частота кадров                           : 25,000 кадров/сек
Цветовое пространство                    : YUV
Субдискретизация насыщенности            : 4:2:0
Битовая глубина                          : 8 бит
Тип развёртки                            : Прогрессивная
Метод сжатия                             : С потерями
Бит/(Пиксели*Кадры)                      : 0.220
Размер потока                            : 572 Мбайт (89%)
Библиотека кодирования                   : XviD 1.2.1 (UTC 2008-12-04)

Аудио
Идентификатор                            : 1
Формат                                   : AC-3
Формат/Информация                        : Audio Coding 3
Расширение режима                        : CM (complete main)
Параметр Endianness формата              : Big
Идентификатор кодека                     : 2000
Продолжительность                        : 50 м. 24 с.
Вид битрейта                             : Постоянный
Битрейт                                  : 192 Кбит/сек
Каналы                                   : 2 канала
Расположение каналов                     : Front: L R
Частота                                  : 48,0 КГц
Частота кадров                           : 31,250 кадров/сек (1536 spf)
Битовая глубина                          : 16 бит
Метод сжатия                             : С потерями
Размер потока                            : 69,2 Мбайт (11%)
Выравнивание                             : Разделение по промежуткам
Продолжительность промежутка             : 40  мс. (1,00 видеокадр)
Время предзагрузки промежутка            : 500  мс.




Скриншоты:
[+] Всего файлов в раздаче - 8:
01.Jekspropriator.HDTVRip.GeneralFilm.avi644.86 MB
02.Jekspropriator.HDTVRip.GeneralFilm.avi634.57 MB
03.Jekspropriator.HDTVRip.GeneralFilm.avi623.50 MB
04.Jekspropriator.HDTVRip.GeneralFilm.avi657.12 MB
05.Jekspropriator.HDTVRip.GeneralFilm.avi652.21 MB
06.Jekspropriator.HDTVRip.GeneralFilm.avi651.44 MB
07.Jekspropriator.HDTVRip.GeneralFilm.avi629.08 MB
08.Jekspropriator.HDTVRip.GeneralFilm.avi603.69 MB

Показать еще раздачи по запросу экспроприатор:
Вчера U Экспроприатор [01-16 из 16] (2019) WEBRip от GeneralFilm 8.71 GB ↑ 58 ↓ 89
2019-08-16 U Экспроприатор [01-16 из 16] (2019) WEBRip от Files-x 10.12 GB ↑ 26 ↓ 100
2019-08-16 U Экспроприатор [01-16 из 16] (2019) HDTVRip-AVC от Files-x 12.06 GB ↑ 79 ↓ 162
2019-08-16 U Экспроприатор [01-16 из 16] (2019) HDTVRip 720p от GeneralFilm 20.31 GB ↑ 147 ↓ 288
2019-08-16 U Экспроприатор [01-16 из 16] (2019) HDTVRip от GeneralFilm 9.82 GB ↑ 103 ↓ 180
2019-08-16 U Экспроприатор [01-16 из 16] (2019) SATRip 10.18 GB ↑ 348 ↓ 608
2019-08-15 U Экспроприатор [01х01-16 из 16] (2019) SATRip-AVC 9.86 GB ↑ 6 ↓ 16

Отзывы
Зарегистрируйтесь чтобы добавить комментарий.
Обратная связь
Copyleft ©