↑↓Torrent.by
Поиск
Логин: Регистрация
Пароль: Восстановить пароль
Загрузка...

Код Красный / Red Joan (2018) BDRip 1080p от OlLanDGroup | P

Скачать kod-krasnyy-red-joan-2018-bdrip-1080p-ot-ollandgroup-p.torrent
U Магнитная ссылка Размер: 10.54 GB Раздают: 18 Качают: 23 Добавлен: 2019-08-09 05:37:50
Код Красный / Red Joan (2018) BDRip 1080p от OlLanDGroup | P

Код Красный / Red Joan
«Реальная история русской шпионки, предотвратившей Третью мировую войну»

Год выпуска: 2018
Страна: Великобритания
Производство: Trademark Films
Жанр:  Драма, мелодрама, биография

Режиссёр: Тревор Нанн
В ролях: Джуди Денч, Софи Куксон, Стивен Кэмпбелл Мур, Том Хьюз, Лоуренс Спэллман, Тереза Србова, Бен Майлз, Робин Соанс, Кевин Фуллер, Стефен Боксер, Фредди Гаминара

Перевод: Профессиональный многоголосый | [HDRezka Studio]
Субтитры: Нет
Реклама: Отсутствует

Описание: Реальная история русской шпионки, которая предотвратила Третью мировую войну. Британская разведка долгие годы гонялась за ней, ее имя стало легендой, но о ее подвиге мы узнали только сейчас, когда был снят гриф секретности.

Качество: BDRip 1080p | BDRip 1080p | Red.Joan.2018.1080p.BluRay.DTS.x264-iFT
Продолжительность: 01:40:56

Формат: MKV
Видео кодек: MPEG-4 AVC
Аудио кодек: AC3
Видео: 1920x804 (2.40:1), 24,000 fps, x264 ~14.0 Mbps avg, 0.378 bit/pixel
Аудио #1: 48 kHz, AC3 Dolby Digital, 2 (L,R) ch, ~192.00 kbps avg | RUS (HDRezka Studio)
Аудио #2: 48 kHz, DTS Digital Theater System, 3/2 (L,C,R,l,r) + LFE ch, ~768.00 kbps avg | ENG

Дата премьеры (мир): 7 сентября 2018
Дата премьеры (РФ): 18 апреля 2019, «Capella Film»
Цифровой релиз: 12 июля 2019, «Capella Film»

Релиз:


[+] MediaInfo

Общее
Уникальный идентификатор                 : 8552502509069080310683880226812926786 (0x66F26EDF07911670B813162D6311B42)
Полное имя                               : F:OlLanDGroupRed.Joan.2018.BDRip(1080p).OllanDGroup.mkv
Формат                                   : Matroska
Версия формата                           : Version 4 / Version 2
Размер файла                             : 10,5 Гбайт
Продолжительность                        : 1 ч. 40 м.
Общий поток                              : 15,0 Мбит/сек
Название фильма                          : Red.Joan.2018   #TorpedoUK#
Дата кодирования                         : UTC 2019-08-08 12:08:20
Программа кодирования                    : mkvmerge v29.0.0 ('Like It Or Not') 64-bit
Библиотека кодирования                   : libebml v1.3.6 + libmatroska v1.4.9

Видео
Идентификатор                            : 1
Формат                                   : AVC
Формат/Информация                        : Advanced Video Codec
Профиль формата                          : High@L4.1
Параметр CABAC формата                   : Да
Параметр ReFrames формата                : 5 кадров
Идентификатор кодека                     : V_MPEG4/ISO/AVC
Продолжительность                        : 1 ч. 40 м.
Битрейт                                  : 14,0 Мбит/сек
Ширина                                   : 1920 пикселей
Высота                                   : 804 пикселя
Соотношение сторон                       : 2,40:1
Режим частоты кадров                     : Постоянный
Частота кадров                           : 24,000 кадра/сек
Цветовое пространство                    : YUV
Субдискретизация насыщенности            : 4:2:0
Битовая глубина                          : 8 бит
Тип развёртки                            : Прогрессивная
Бит/(Пиксели*Кадры)                      : 0.378
Размер потока                            : 9,86 Гбайт (94%)
Библиотека кодирования                   : x264 core 155 r2867+74 66b5600 t_mod_Custom_2 [8-bit@all X86_64]
Настройки программы                      : cabac=1 / ref=5 / deblock=1:-3:-3 / analyse=0x3:0x133 / me=umh / subme=11 / psy=1 / fade_compensate=0.00 / psy_rd=1.05:0.00 / mixed_ref=1 / me_range=32 / chroma_me=1 / trellis=2 / 8x8dct=1 / cqm=0 / deadzone=21,11 / fast_pskip=0 / chroma_qp_offset=-2 / threads=18 / lookahead_threads=3 / sliced_threads=0 / nr=0 / decimate=0 / interlaced=0 / bluray_compat=0 / constrained_intra=0 / fgo=0 / bframes=8 / b_pyramid=2 / b_adapt=2 / b_bias=0 / direct=3 / weightb=1 / open_gop=0 / weightp=2 / keyint=250 / keyint_min=24 / scenecut=40 / intra_refresh=0 / rc=2pass / mbtree=0 / bitrate=14000 / ratetol=1.0 / qcomp=0.60 / qpmin=0:0:0 / qpmax=69:69:69 / qpstep=4 / cplxblur=20.0 / qblur=0.5 / ip_ratio=1.30 / pb_ratio=1.20 / aq=3:0.80 / aq-sensitivity=10.00 / aq-factor=1.00:1.00:1.00 / aq2=0 / aq3=0 / zones=24,610,b=1.5/3096,3675,b=1.5/14235,14763,b=1.5/25800,27615,b=1.5/43673,45416,b=1.5/63706,65762,b=1.5/75360,77616,b=1.5/92462,92926,b=1.5/98920,102904,b=1.5/109917,111772,b=1.5/115306,115587,b=1.5
Язык                                     : English
Default                                  : Да
Forced                                   : Нет

Аудио #1
Идентификатор                            : 2
Формат                                   : AC-3
Формат/Информация                        : Audio Coding 3
Расширение режима                        : CM (complete main)
Параметр Endianness формата              : Big
Идентификатор кодека                     : A_AC3
Продолжительность                        : 1 ч. 40 м.
Вид битрейта                             : Постоянный
Битрейт                                  : 192 Кбит/сек
Каналы                                   : 2 канала
Расположение каналов                     : Front: L R
Частота                                  : 48,0 КГц
Частота кадров                           : 31,250 кадров/сек (1536 spf)
Битовая глубина                          : 16 бит
Метод сжатия                             : С потерями
Размер потока                            : 138 Мбайт (1%)
Заголовок                                : MVO [HDRezka Studio]
Язык                                     : Russian
Default                                  : Да
Forced                                   : Нет

Аудио #2
Идентификатор                            : 3
Формат                                   : DTS
Формат/Информация                        : Digital Theater Systems
Режим                                    : 16
Параметр Endianness формата              : Big
Идентификатор кодека                     : A_DTS
Продолжительность                        : 1 ч. 40 м.
Вид битрейта                             : Постоянный
Битрейт                                  : 768 Кбит/сек
Каналы                                   : 6 каналов
Расположение каналов                     : Front: L C R, Side: L R, LFE
Частота                                  : 48,0 КГц
Частота кадров                           : 93,750 кадра/сек (512 spf)
Битовая глубина                          : 16 бит
Метод сжатия                             : С потерями
Размер потока                            : 554 Мбайт (5%)
Заголовок                                : [Original]
Язык                                     : English
Default                                  : Нет
Forced                                   : Нет

Меню
00:00:00.000                             : en:Chapter 01
00:06:13.708                             : en:Chapter 02
00:14:22.167                             : en:Chapter 03
00:23:30.542                             : en:Chapter 04
00:31:38.042                             : en:Chapter 05
00:39:50.875                             : en:Chapter 06
00:51:48.625                             : en:Chapter 07
01:01:47.542                             : en:Chapter 08
01:09:32.250                             : en:Chapter 09
01:15:04.000                             : en:Chapter 10
01:23:56.750                             : en:Chapter 11
01:29:02.333                             : en:Chapter 12


Скриншоты:
[+] Всего файлов в раздаче - 1:
Red.Joan.2018.BDRip(1080p).OllanDGroup.mkv10.54 GB

Показать еще раздачи по запросу красный:
Сегодня U Код Красный / Red Joan (2018) BDRip-AVC от OlLanDGroup | D, P | iTunes 1.68 GB ↑ 28 ↓ 4
Вчера U Код Красный / Red Joan (2018) BDRip 1080p от OlLanDGroup | D, P | iTunes 10.81 GB ↑ 81 ↓ 66
Вчера U Код Красный / Red Joan (2018) BDRip-AVC от ExKinoRay | iTunes 2.07 GB ↑ 42 ↓ 18
2019-08-13 U Код Красный / Red Joan (2018) BDRip от MegaPeer | iTunes 1.42 GB ↑ 147 ↓ 80
2019-08-09 U Код Красный / Red Joan (2018) BDRip от MegaPeer | HDRezka Studio 1.46 GB ↑ 63 ↓ 18
2019-06-25 U Код Красный / Red Joan (2018) WEB-DLRip | HDRezka Studio 751.21 MB ↑ 72 ↓ 13
2018-04-18 U Красный уровень [S01] (2018) WEBRip 4.17 GB ↑ 181 ↓ 89

Отзывы
Зарегистрируйтесь чтобы добавить комментарий.
Обратная связь
Copyleft ©