↑↓Torrent.by
Поиск
Логин: Регистрация
Пароль: Восстановить пароль
Загрузка...

Аладдин / Аладдін / Aladdin (2019) WEB-DL 1080p | Line | UKR

Скачать aladdin-aladd-n-2019-web-dl-1080p-line-ukr.torrent
U Магнитная ссылка Размер: 5.84 GB Раздают: 630 Качают: 277 Добавлен: 2019-08-09 19:04:18
Аладдин / Аладдін / Aladdin (2019) WEB-DL 1080p | Line | UKR

Название: Аладдин
Оригинальное название: Aladdin
Год выхода: 2019
Жанр: Мюзикл, фэнтези, мелодрама, комедия, приключения, семейный

Режиссер: Гай Ричи

В ролях: Мена Массуд, Наоми Скотт, Уилл Смит, Билли Магнуссен, Алан Тьюдик, Назим Педрад, Марван Кензари, Нуман Аджар, Фрэнк Уэлкер, Навид Негабан

О фильме:  Молодой воришка по имени Аладдин хочет стать принцем, чтобы жениться на принцессе Жасмин. Тем временем визирь Аграбы Джафар намеревается захватить власть над Аграбой, а для этого он стремится заполучить волшебную лампу, хранящуюся в пещере чудес, доступ к которой разрешен лишь тому, кого называют «алмаз неограненный», и этим человеком является не кто иной, как сам Аладдин.

Страна: США
Продолжительность: 02:07:58
Перевод: Профессиональный (дублированный) [Line, Украинский]

Файл
Кодек: x.264
Качество: WEB-DL 1080p
Видео: AVC, 1920x1080 (16:9), 23.976 fps, 6 000 kb/s
Аудио 1: AC-3, 48.0 kHz, 2 ch, 192 kb/s | UKR
Аудио 2: AC-3, 48.0 kHz, 6 ch, 384 kb/s | ENG
Субтитры: английские (full, SDH)

Семпл


[+] MI
General
Unique ID                                : 226245298149306034157548057836525459311 (0xAA35426B337158098EAB4F060A0C176F)
Complete name                            : Aladdin.2019.1080p.Ukr.Eng.mkv
Format                                   : Matroska
Format version                           : Version 4
File size                                : 5.84 GiB
Duration                                 : 2 h 7 min
Overall bit rate                         : 6 535 kb/s
Encoded date                             : UTC 2019-08-08 20:17:31
Writing application                      : mkvmerge v8.3.0 ('Over the Horizon') 64bit
Writing library                          : libebml v1.3.1 + libmatroska v1.4.2

Video
ID                                       : 1
Format                                   : AVC
Format/Info                              : Advanced Video Codec
Format profile                           : High@L4
Format settings                          : CABAC / 4 Ref Frames
Format settings, CABAC                   : Yes
Format settings, ReFrames                : 4 frames
Codec ID                                 : V_MPEG4/ISO/AVC
Duration                                 : 2 h 7 min
Bit rate                                 : 6 000 kb/s
Width                                    : 1 920 pixels
Height                                   : 1 080 pixels
Display aspect ratio                     : 16:9
Frame rate mode                          : Constant
Frame rate                               : 23.976 (24000/1001) FPS
Color space                              : YUV
Chroma subsampling                       : 4:2:0
Bit depth                                : 8 bits
Scan type                                : Progressive
Bits/(Pixel*Frame)                       : 0.121
Stream size                              : 5.32 GiB (91%)
Writing library                          : x264 core 152 r2854 e9a5903
Encoding settings                        : cabac=1 / ref=3 / deblock=1:0:0 / analyse=0x3:0x133 / me=hex / subme=7 / psy=1 / psy_rd=1.00:0.00 / mixed_ref=1 / me_range=16 / chroma_me=1 / trellis=1 / 8x8dct=1 / cqm=0 / deadzone=21,11 / fast_pskip=1 / chroma_qp_offset=-2 / threads=24 / lookahead_threads=4 / sliced_threads=0 / nr=0 / decimate=1 / interlaced=0 / bluray_compat=0 / constrained_intra=0 / bframes=3 / b_pyramid=2 / b_adapt=1 / b_bias=0 / direct=1 / weightb=1 / open_gop=0 / weightp=2 / keyint=250 / keyint_min=25 / scenecut=40 / intra_refresh=0 / rc_lookahead=40 / rc=abr / mbtree=1 / bitrate=6000 / ratetol=1.0 / qcomp=0.60 / qpmin=10 / qpmax=51 / qpstep=4 / ip_ratio=1.40 / aq=1:1.00
Default                                  : Yes
Forced                                   : No

Audio #1
ID                                       : 2
Format                                   : AC-3
Format/Info                              : Audio Coding 3
Commercial name                          : Dolby Digital
Codec ID                                 : A_AC3
Duration                                 : 2 h 7 min
Bit rate mode                            : Constant
Bit rate                                 : 192 kb/s
Channel(s)                               : 2 channels
Channel layout                           : L R
Sampling rate                            : 48.0 kHz
Frame rate                               : 31.250 FPS (1536 SPF)
Bit depth                                : 16 bits
Compression mode                         : Lossy
Stream size                              : 176 MiB (3%)
Title                                    : Dub [Ledoyen, Line]
Language                                 : Ukrainian
Default                                  : Yes
Forced                                   : No

Audio #2
ID                                       : 3
Format                                   : AC-3
Format/Info                              : Audio Coding 3
Commercial name                          : Dolby Digital
Codec ID                                 : A_AC3
Duration                                 : 2 h 7 min
Bit rate mode                            : Constant
Bit rate                                 : 384 kb/s
Channel(s)                               : 6 channels
Channel layout                           : L R C LFE Ls Rs
Sampling rate                            : 48.0 kHz
Frame rate                               : 31.250 FPS (1536 SPF)
Bit depth                                : 16 bits
Compression mode                         : Lossy
Stream size                              : 351 MiB (6%)
Language                                 : English
Default                                  : No
Forced                                   : No

Text #1
ID                                       : 4
Format                                   : UTF-8
Codec ID                                 : S_TEXT/UTF8
Codec ID/Info                            : UTF-8 Plain Text
Duration                                 : 1 h 58 min
Bit rate                                 : 50 b/s
Count of elements                        : 1682
Stream size                              : 43.4 KiB (0%)
Title                                    : Full
Language                                 : English
Default                                  : No
Forced                                   : No

Text #2
ID                                       : 5
Format                                   : UTF-8
Codec ID                                 : S_TEXT/UTF8
Codec ID/Info                            : UTF-8 Plain Text
Duration                                 : 2 h 7 min
Bit rate                                 : 69 b/s
Count of elements                        : 2433
Stream size                              : 65.1 KiB (0%)
Title                                    : SDH
Language                                 : English
Default                                  : No
Forced                                   : No



Скриншоты:
[+] Всего файлов в раздаче - 1:
Aladdin.2019.1080p.Ukr.Eng.mkv5.84 GB

Показать еще раздачи по запросу аладдин:
2019-08-14 U Аладдин / Aladdin (2019) WEBRip 720p | HDRezka Studio 3.45 GB ↑ 123 ↓ 93
2019-08-14 U Аладдин / Aladdin (2019) WEB-DLRip от Scarabey | HDRezka Studio 795.27 MB ↑ 78 ↓ 21
2019-08-14 U Аладдин / Aladdin (2019) WEB-DLRip от Scarabey | HDRezka Studio 1.45 GB ↑ 241 ↓ 65
2019-08-13 U Аладдин / Aladdin (2019) WEBRip-HEVC 720p | HDRezka Studio 3.38 GB ↑ 254 ↓ 116
2019-08-13 U Аладдин / Aladdin (2019) WEB-DLRip-AVC | HDRezka Studio 2.45 GB ↑ 80 ↓ 48
2019-08-13 U Аладдин / Aladdin (2019) WEB-DLRip-AVC от ExKinoRay | HDRezka Studio 745.71 MB ↑ 111 ↓ 38
2019-08-13 U Аладдин / Aladdin (2019) WEB-DLRip от MegaPeer | HDRezka Studio 1.46 GB ↑ 250 ↓ 85

Отзывы
Зарегистрируйтесь чтобы добавить комментарий.
Обратная связь
Copyleft ©