↑↓Torrent.by
Поиск
Логин: Регистрация
Пароль: Восстановить пароль
Загрузка...

Джона Хекс / Jonah Hex (2010) BDRip 1080p | P

Скачать dzhona-heks-jonah-hex-2010-bdrip-1080p-p.torrent
U Магнитная ссылка Размер: 8.30 GB Раздают: 76 Качают: 55 Добавлен: 2019-08-09 19:04:35
Джона Хекс / Jonah Hex (2010) BDRip 1080p | P

Название: Джона Хекс
Оригинальное название: Jonah Hex
Год выхода: 2010
Жанр: Боевик, триллер, драма, вестерн
Режиссер: Джимми Хейярд
В ролях: Джош Бролин, Джон Малкович, Меган Фокс, Майкл Фассбендер, Уилл Арнетт, Джон Галлахер мл., Том Вопат, Майкл Шеннон, Уэс Бентли, Джулия Джонс

О фильме:
Конец XIX века. Джона Хекс — странник и наемный убийца, последний, к кому обращаются, чтобы поймать кого-то из людей или нечто нечеловеческое… Сторонясь людей, герой тем не менее, поддерживает связь с Лейлой, работницей борделя. По заданию военных он должен будет выследить и поймать Квентина Тернбалла, который собирается очистить Юг конфедератов.

Страна: США
Продолжительность: 01:21:28
Перевод: Профессиональный многоголосый (лицензия)

Файл
Кодек: MPEG-4
Качество: BDRip 1080p
Видео: AVC; 1 920x800 (2.35:1); 12.4 Mbps; 23,976 fps;
Аудио:

   RUS: AC3, 6 ch, 48 KHz, ~640 kbps (многоголосый закадровый)
   ENG: DTS, 6 ch, 48 KHz, ~1510 kbps

Субтитры:

  Русские (надписи и пр.) (BD),
  Русские (полные) (BD),
  Английские SDH (BD)




[+] MI

  General
     Complete name : Jonah.Hex.2010.Bluray.1080p.AC3.x264-CHD.mkv
     Format : Matroska
     File size : 8.30 GiB
     Duration : 1h 21mn
     Overall bit rate : 14.6 Mbps
     Movie name : Jonah.Hex.2010.Blu-ray.1080p.VC-1
     Encoded date : UTC 2010-10-15 18:43:06
     Writing application : mkvmerge v2.4.2 ('Oh My God') built on Jan 18 2009 17:30:28
     Writing library : libebml v0.7.7 + libmatroska v0.8.1
  Video #1
     ID : 1
     Format : AVC
     Format/Info : Advanced Video Codec
     Format profile : High@L4.1
     Format settings, CABAC : Yes
     Format settings, ReFrames : 6 frames
     Muxing mode : Container profile=Unknown@4.1
     Codec ID : V_MPEG4/ISO/AVC
     Duration : 1h 21mn
     Bit rate : 12.4 Mbps
     Width : 1 920 pixels
     Height : 800 pixels
     Display aspect ratio : 2.40:1
     Frame rate : 23.976 fps
     Color space : YUV
     Chroma subsampling : 4:2:0
     Bit depth : 8 bits
     Scan type : Progressive
     Bits/(Pixel*Frame) : 0.337
     Stream size : 6.91 GiB (83%)
     Title : Jonah.Hex.2010.Bluray.1080p.DTS.x264-CHD
     Writing library : x264 core 84 r1416 fcf70c2
     Encoding settings : cabac=1 / ref=6 / deblock=1:-3:-3 / analyse=0x3:0x113 / me=umh / subme=10 / psy=1 / psy_rd=1.0:0.1 / mixed_ref=1 / me_range=64 / chroma_me=1 / trellis=2 / 8x8dct=1 / cqm=2 / deadzone=21,11 / fast_pskip=0 / chroma_qp_offset=-2 / threads=12 / sliced_threads=0 / nr=0 / decimate=1 / mbaff=0 / constrained_intra=0 / bframes=5 / b_pyramid=2 / b_adapt=2 / b_bias=0 / direct=3 / wpredb=1 / wpredp=2 / keyint=250 / keyint_min=25 / scenecut=40 / intra_refresh=0 / rc_lookahead=60 / rc=2pass / mbtree=1 / bitrate=12421 / ratetol=2.0 / qcomp=0.70 / qpmin=10 / qpmax=51 / qpstep=4 / cplxblur=20.0 / qblur=0.5 / vbv_maxrate=50000 / vbv_bufsize=50000 / ip_ratio=1.40 / aq=1:1.00
     Language : English
  Audio #2
     ID : 2
     Format : AC-3
     Format/Info : Audio Coding 3
     Mode extension : CM (complete main)
     Codec ID : A_AC3
     Duration : 1h 21mn
     Bit rate mode : Constant
     Bit rate : 640 Kbps
     Channel(s) : 6 channels
     Channel positions : Front: L C R, Side: L R, LFE
     Sampling rate : 48.0 KHz
     Bit depth : 16 bits
     Stream size : 373 MiB (4%)
     Title : Voice over (BD)
     Language : Russian
  Audio #3
     ID : 3
     Format : DTS
     Format/Info : Digital Theater Systems
     Codec ID : A_DTS
     Duration : 1h 21mn
     Bit rate mode : Constant
     Bit rate : 1 510 Kbps
     Channel(s) : 6 channels
     Channel positions : Front: L C R, Side: L R, LFE
     Sampling rate : 48.0 KHz
     Bit depth : 24 bits
     Stream size : 880 MiB (10%)
     Title : Jonah.Hex.2010.DTS 1509kbps
     Language : English
  Text #4
     ID : 4
     Format : UTF-8
     Codec ID : S_TEXT/UTF8
     Codec ID/Info : UTF-8 Plain Text
     Title : Forced BD
     Language : Russian
  Text #5
     ID : 5
     Format : UTF-8
     Codec ID : S_TEXT/UTF8
     Codec ID/Info : UTF-8 Plain Text
     Title : Full BD
     Language : Russian
  Text #6
     ID : 6
     Format : UTF-8
     Codec ID : S_TEXT/UTF8
     Codec ID/Info : UTF-8 Plain Text
     Title : SDH BD
     Language : English



Скриншоты:
[+] Всего файлов в раздаче - 1:
Jonah.Hex.2010.Bluray.1080p.AC3.x264-CHD.mkv8.30 GB

Похожие раздачи по запросу - джона:
2019-08-09 U Джона Хекс / Jonah Hex (2010) BDRip-AVC | P | Лицензия 746.97 MB ↑ 79 ↓ 20
2019-08-09 U Джона Хекс / Jonah Hex (2010) BDRip от HQ-ViDEO | Лицензия 5К1.46 GB ↑ 92 ↓ 33
2019-03-11 U Дуглас Джеймс - Зачем убили Джона Кеннеди. Правда, которую важно знать (2019) FB2 3.41 MB ↑ 134 ↓ 6

Отзывы
Зарегистрируйтесь чтобы добавить комментарий.
Обратная связь
Copyleft ©