↑↓Torrent.by
Поиск
Логин: Регистрация
Пароль: Восстановить пароль
Загрузка...

Балканский рубеж (2019) BDRip 720p от k.e.n & MegaPeer | FRA Transfer | iTunes

Скачать balkanskiy-rubezh-2019-bdrip-720p-ot-k-e-n-megapeer-fra-transfer-itunes.torrent
U Магнитная ссылка Размер: 4.37 GB Раздают: 55 Качают: 6 Добавлен: 2019-08-10 09:17:31
Балканский рубеж (2019) BDRip 720p от k.e.n & MegaPeer | FRA Transfer | iTunes

Информация о фильме
Название: Балканский рубеж
Год выпуска: 2019
Жанр:  Боевик, драма
Режиссер: Андрей Волгин
В ролях: Антон Пампушный, Гоша Куценко, Милош Бикович, Милена Радулович, Гойко Митич, Равшана Куркова, Дмитрий Фрид, Александар Сречкович, Светлана Чуйкина, Миодраг Радонич

О фильме:
Югославия. 1999 год. Российская спецгруппа получает приказ взять под контроль аэродром Слатина в Косово и удерживать его до прихода подкрепления. Но этот стратегический объект крайне важен албанскому полевому командиру и натовским генералам. Группа вынуждена принять неравный бой с террористами. К аэродрому устремляются российские миротворцы и силы НАТО. Мир вновь близок к большой войне. Но командиру спецгруппы Андрею Шаталову не до политики: в аэропорту среди заложников его любимая девушка Ясна.

Выпущено: Россия, Сербия, Апгрейд Вижн, Блесс-Фильм, Archangel Studios
Продолжительность: 02:31:16
Язык: Русский | iTunes

Файл
Формат: MKV
Качество: BDRip 720p
Видео: AVC, 1280x534, 23.976 fps, 3753 kbps
Аудио: AC3, 48 kHz, 6 ch, 384 kbps (Russian)
Субтитры: Russian

Релиз:  &


[+] x264 log & MediaInfo:
x264 [info]: frame I:1745  Avg QP:15.45  size: 81847  PSNR Mean Y:47.26 U:51.44 V:50.84 Avg:48.10 Global:47.40
x264 [info]: frame P:53596 Avg QP:18.60  size: 36155  PSNR Mean Y:45.27 U:51.35 V:50.56 Avg:46.33 Global:45.52
x264 [info]: frame B:162276 Avg QP:20.18  size: 13398  PSNR Mean Y:44.53 U:51.39 V:50.33 Avg:45.68 Global:44.79

Формат                                   : Matroska
Версия формата                           : Version 2
Размер файла                             : 4,37 Гбайт
Продолжительность                        : 2 ч. 31 м.
Общий поток                              : 4136 Кбит/сек
Дата кодирования                         : UTC 2019-08-08 06:39:05
Программа кодирования                    : mkvmerge v5.3.0 ('I could have danced') built on Feb  9 2012 10:38:07
Библиотека кодирования                   : libebml v1.2.3 + libmatroska v1.3.0
Обложка                                  : Yes
Attachments                              : cover (4).png

Видео
Идентификатор                            : 1
Формат                                   : AVC
Формат/Информация                        : Advanced Video Codec
Профиль формата                          : High@L4.1
Настройки формата                        : CABAC / 12 Ref Frames
Параметр CABAC формата                   : Да
Параметр RefFrames формата               : 12 кадров
Идентификатор кодека                     : V_MPEG4/ISO/AVC
Продолжительность                        : 2 ч. 31 м.
Битрейт                                  : 3753 Кбит/сек
Ширина                                   : 1280 пикселей
Высота                                   : 534 пикселя
Соотношение сторон                       : 2,40:1
Режим частоты кадров                     : Постоянный
Частота кадров                           : 23,976 (24000/1001) кадра/сек
Цветовое пространство                    : YUV
Субдискретизация насыщенности            : 4:2:0
Битовая глубина                          : 8 бит
Тип развёртки                            : Прогрессивная
Бит/(Пиксели*Кадры)                      : 0.229
Размер потока                            : 3,88 Гбайт (89%)
Библиотека кодирования                   : x264 core 157 r2945 72db437
Настройки программы                      : cabac=1 / ref=12 / deblock=1:-3:-3 / analyse=0x3:0x133 / me=umh / subme=11 / psy=1 / psy_rd=1.00:0.00 / mixed_ref=1 / me_range=32 / chroma_me=1 / trellis=2 / 8x8dct=1 / cqm=0 / deadzone=21,11 / fast_pskip=0 / chroma_qp_offset=-2 / threads=12 / lookahead_threads=3 / sliced_threads=0 / nr=0 / decimate=0 / interlaced=0 / bluray_compat=0 / constrained_intra=0 / bframes=12 / b_pyramid=2 / b_adapt=2 / b_bias=0 / direct=3 / weightb=1 / open_gop=0 / weightp=2 / keyint=240 / keyint_min=23 / scenecut=40 / intra_refresh=0 / rc=2pass / mbtree=0 / bitrate=3753 / ratetol=1.0 / qcomp=0.70 / qpmin=0 / qpmax=69 / qpstep=4 / cplxblur=20.0 / qblur=0.5 / ip_ratio=1.30 / pb_ratio=1.30 / aq=3:0.90
Язык                                     : English
Default                                  : Да
Forced                                   : Нет
Цветовой диапазон                        : Limited
Основные цвета                           : BT.709
Характеристики трансфера                 : BT.709
Коэффициенты матрицы                     : BT.709

Аудио
Идентификатор                            : 2
Формат                                   : AC-3
Формат/Информация                        : Audio Coding 3
Коммерческое название                    : Dolby Digital
Идентификатор кодека                     : A_AC3
Продолжительность                        : 2 ч. 31 м.
Вид битрейта                             : Постоянный
Битрейт                                  : 384 Кбит/сек
Каналы                                   : 6 каналов
ChannelLayout                            : L R C LFE Ls Rs
Частота                                  : 48,0 КГц
Частота кадров                           : 31,250 кадров/сек (1536 SPF)
Битовая глубина                          : 16 бит
Метод сжатия                             : С потерями
Размер потока                            : 415 Мбайт (9%)
Заголовок                                : iTunes
Язык                                     : Russian
ServiceKind/String                       : Complete Main
Default                                  : Нет
Forced                                   : Нет

Текст #1
Идентификатор                            : 3
Формат                                   : UTF-8
Идентификатор кодека                     : S_TEXT/UTF8
Идентификатор кодека/Информация          : UTF-8 Plain Text
Заголовок                                : forced (на титры)
Язык                                     : Russian
Default                                  : Да
Forced                                   : Нет

Текст #2
Идентификатор                            : 4
Формат                                   : UTF-8
Идентификатор кодека                     : S_TEXT/UTF8
Идентификатор кодека/Информация          : UTF-8 Plain Text
Заголовок                                : forced (на албанскую речь)
Язык                                     : Russian
Default                                  : Нет
Forced                                   : Нет

Текст #3
Идентификатор                            : 5
Формат                                   : UTF-8
Идентификатор кодека                     : S_TEXT/UTF8
Идентификатор кодека/Информация          : UTF-8 Plain Text
Заголовок                                : full
Язык                                     : Russian
Default                                  : Нет
Forced                                   : Нет

Меню
00:00:00.000                             : :Глава 01
00:08:49.988                             : :Глава 02
00:22:11.830                             : :Глава 03
00:32:55.599                             : :Глава 04
00:47:48.365                             : :Глава 05
01:00:28.625                             : :Глава 06
01:17:46.579                             : :Глава 07
01:31:32.612                             : :Глава 08
01:46:26.839                             : :Глава 09
02:01:19.272                             : :Глава 10
02:14:36.277                             : :Глава 11
02:26:42.252                             : :Глава 12




Скриншоты:
[+] Всего файлов в раздаче - 1:
Балканский рубеж.2019 (А.Пампушный, Г.Куценко).mkv4.37 GB

Показать еще раздачи по запросу балканский:
2019-09-06 U Балканский рубеж (2019) WEB-DLRip-AVC от Files-x | iTunes 2.72 GB ↑ 814 ↓ 28
2019-08-24 U Балканский рубеж (2019) HDRip от Scarabey | iTunes 1.45 GB ↑ 395 ↓ 7
2019-08-10 U Балканский рубеж (2019) BDRip-AVC от New-Team | iTunes 2.90 GB ↑ 52 ↓ 7
2019-08-10 U Балканский рубеж (2019) BDRip-AVC от New-Team | iTunes 1.47 GB ↑ 67 ↓ 5
2019-08-04 U Балканский рубеж (2019) BDRip от MegaPeer | iTunes 2.18 GB ↑ 176 ↓ 34
2019-08-04 U Балканский рубеж (2019) BDRip от MegaPeer | iTunes 1.46 GB ↑ 72 ↓ 32
2019-07-20 U Балканский рубеж (2019) WEB-DLRip 1080p от Талямбы | 60 fps | iTunes 13.02 GB ↑ 40 ↓ 44

Отзывы
Зарегистрируйтесь чтобы добавить комментарий.
Обратная связь
Copyleft ©