↑↓Torrent.by
Поиск
Логин: Регистрация
Пароль: Восстановить пароль
Загрузка...

Чёрный ястреб / Падение Чёрного ястреба / Black Hawk Down (2001) BDRip-HEVC 1080p | 60 fps | P | Расширенная версия

Скачать chernyy-yastreb-padenie-chernogo-yastreba-black-hawk-down-2001-bdrip-hevc-1080p-60-fps-p-rasshirennaya-versiya.torrent
U Магнитная ссылка Размер: 8.64 GB Раздают: 84 Качают: 39 Добавлен: 2019-08-10 14:47:09
Чёрный ястреб / Падение Чёрного ястреба / Black Hawk Down (2001) BDRip-HEVC 1080p | 60 fps | P | Расширенная версия

Год выпуска: 2001
Страна: США
Жанр:  боевик, драма, военный
Продолжительность: 02:31:52
Перевод: Профессиональный (многоголосый закадровый)

Режиссер: Ридли Скотт

В ролях: Джош Хартнетт, Эрик Бана, Эван МакГрегор, Том Сайзмор, Уиллиам Фичтнер, Сэм Шепард, Ивэн Бремнер, Чарли Хофхеймер, Том Харди, Том Гири, Джейсон Айзэкс, Брайан ван Холт, Джереми Пивен, Орландо Блум, Ким Коутс

Описание: Сомали, 1993 год. Страна вымирает от голода, число жертв превысило триста тысяч человек. Миротворческие силы ООН пытаются восстановить порядок и организовать поставки продовольствия. В помощь им Вашингтон выслал полтысячи человек из элитных подразделений американской армии, знаменитые отряды «Дельта» и армейских рейнджеров.
В городе Могадишо хозяйничает и творит беспредел полевой командир Айдид, убивая мирных граждан и отбирая гуманитарную помощь. В определенный момент орлы из Вашингтона решают провести операцию по захвату Айдида в его резиденции.
Молодой офицер, только что назначенный взводным; матерый сержант, ведущий колонну машин; казарменный писарь, не нюхавший пороху; экипажи сбитых вертолетов, вынужденных ждать подкрепления и эвакуации; пара солдат, которых забыли взять с собой при смене позиции; генерал, сидящий в штабе и наблюдающий со спутника, как погибают его солдаты…

Качество: BDRip-HEVC 1080p
Формат: MKV
Видео кодек: H.265 (HEVC)
Аудио кодек: AC3
Видео: HEVC , 1920x800 (2.40:1), 7694 kbps, 60,000 fps, 0.084 bpp
Аудио#1: AC3 / 5.1 / 48 kHz / 448 kbps / 16 bit | Профессиональный (многоголосый закадровый) - Русский [Киномания]
Субтитры: Русские (полные)


[+] MediaInfo
Общее
Unique ID                                : 97958236761449308491654577233080131890 (0x49B211F5353627257D40ED6C6E18A132)
Complete name                            : D:Black_Hawk_Down_(2001)_Ext_BDRip_HEVC_1080p_60fps.mkv
Format                                   : Matroska
Format version                           : Version 4
File size                                : 8,64 Гбайт
Duration                                 : 2 ч. 31 м.
Overall bit rate                         : 8147 Кбит/сек
Movie name                               : Black Hawk Down by Tiberiumsun69
Encoded date                             : UTC 2019-08-09 15:17:27
Writing application                      : mkvmerge v35.0.0 ('All The Love In The World') 64-bit
Writing library                          : libebml v1.3.9 + libmatroska v1.5.2
Cover                                    : Yes
Attachments                              : Cover.jpg

Видео
ID                                       : 1
Format                                   : HEVC
Format/Info                              : High Efficiency Video Coding
Format profile                           : Main@L4.1@High
Codec ID                                 : V_MPEGH/ISO/HEVC
Duration                                 : 2 ч. 31 м.
Bit rate                                 : 7694 Кбит/сек
Width                                    : 1920 пикселей
Height                                   : 800 пикселей
Display aspect ratio                     : 2,40:1
Frame rate mode                          : Переменный
Frame rate                               : 59,940 (59940/1000) кадров/сек
Original frame rate                      : 60,000 кадров/сек
Color space                              : YUV
Chroma subsampling                       : 4:2:0
Bit depth                                : 8 бит
Bits/(Pixel*Frame)                       : 0.084
Stream size                              : 8,16 Гбайт (94%)
Writing library                          : x265 3.1+7-147fb92c5ed5:[Windows][clang 8.0.0][64 bit] 8bit
Encoding settings                        : cpuid=1111039 / frame-threads=9 / numa-pools=8 / wpp / no-pmode / no-pme / no-psnr / no-ssim / log-level=3 / input-csp=1 / input-res=1920x800 / interlace=0 / total-frames=0 / level-idc=0 / high-tier=1 / uhd-bd=0 / ref=4 / allow-non-conformance / no-repeat-headers / annexb / no-aud / no-hrd / info / hash=0 / no-temporal-layers / open-gop / min-keyint=60 / keyint=600 / gop-lookahead=0 / bframes=4 / b-adapt=2 / b-pyramid / bframe-bias=0 / rc-lookahead=25 / lookahead-slices=4 / scenecut=40 / radl=0 / no-splice / no-intra-refresh / ctu=64 / min-cu-size=8 / rect / no-amp / max-tu-size=32 / tu-inter-depth=1 / tu-intra-depth=1 / limit-tu=0 / rdoq-level=2 / dynamic-rd=0.00 / no-ssim-rd / signhide / no-tskip / nr-intra=0 / nr-inter=0 / no-constrained-intra / strong-intra-smoothing / max-merge=3 / limit-refs=3 / limit-modes / me=3 / subme=3 / merange=57 / temporal-mvp / no-hme / weightp / no-weightb / no-analyze-src-pics / deblock=-3:-3 / sao / no-sao-non-deblock / rd=4 / no-early-skip / rskip / no-fast-intra / no-tskip-fast / no-cu-lossless / no-b-intra / no-splitrd-skip / rdpenalty=0 / psy-rd=2.00 / psy-rdoq=1.00 / no-rd-refine / no-lossless / cbqpoffs=0 / crqpoffs=0 / rc=crf / crf=18.0 / qcomp=0.60 / qpstep=4 / stats-write=0 / stats-read=0 / vbv-maxrate=50000 / vbv-bufsize=50000 / vbv-init=0.9 / crf-max=30.0 / crf-min=0.0 / ipratio=1.40 / pbratio=1.30 / aq-mode=2 / aq-strength=1.00 / cutree / zone-count=0 / no-strict-cbr / qg-size=32 / no-rc-grain / qpmax=69 / qpmin=0 / no-const-vbv / sar=1 / overscan=0 / videoformat=5 / range=0 / colorprim=2 / transfer=2 / colormatrix=2 / chromaloc=0 / display-window=0cll=0,0 / min-luma=0 / max-luma=255 / log2-max-poc-lsb=8 / vui-timing-info / vui-hrd-info / slices=1 / no-opt-qp-pps / no-opt-ref-list-length-pps / no-multi-pass-opt-rps / scenecut-bias=0.05 / no-opt-cu-delta-qp / no-aq-motion / no-hdr / no-hdr-opt / no-dhdr10-opt / no-idr-recovery-sei / analysis-reuse-level=5 / scale-factor=0 / refine-intra=0 / refine-inter=0 / refine-mv=0 / refine-ctu-distortion=0 / no-limit-sao / ctu-info=0 / no-lowpass-dct / refine-analysis-type=0 / copy-pic=1 / max-ausize-factor=1.0 / no-dynamic-refine / no-single-sei / no-hevc-aq / no-svt / no-field / qp-adaptation-range=1.00
Language                                 : English
Default                                  : Да
Forced                                   : Нет
Color range                              : Limited

Аудио
ID                                       : 2
Format                                   : AC-3
Format/Info                              : Audio Coding 3
Commercial name                          : Dolby Digital
Codec ID                                 : A_AC3
Duration                                 : 2 ч. 31 м.
Bit rate mode                            : Постоянный
Bit rate                                 : 448 Кбит/сек
Channel(s)                               : 6 каналов
Channel layout                           : L R C LFE Ls Rs
Sampling rate                            : 48,0 КГц
Frame rate                               : 31,250 кадров/сек (1536 SPF)
Bit depth                                : 16 бит
Compression mode                         : С потерями
Delay relative to video                  : 24 мс.
Stream size                              : 487 Мбайт (5%)
Title                                    : MVO Киномания (Rus) / AC3 / 6 ch / 448 kbps / 48 kHz
Language                                 : Russian
Service kind                             : Complete Main
Default                                  : Да
Forced                                   : Да

Текст
ID                                       : 3
Format                                   : UTF-8
Codec ID                                 : S_TEXT/UTF8
Codec ID/Info                            : UTF-8 Plain Text
Duration                                 : 2 ч. 24 м.
Bit rate                                 : 72 бит/сек
Count of elements                        : 1570
Stream size                              : 76,7 Кбайт (0%)
Title                                    : Full (Rus) / S_TEXT/UTF8
Language                                 : Russian
Default                                  : Нет
Forced                                   : Нет

Меню
00:00:00.000                             : en:Start
00:21:49.683                             : en:The Plan
00:31:41.358                             : en:X Marks The Spot
00:37:21.448                             : en:Irene
00:39:20.984                             : en:Early Warning System
00:43:26.562                             : en:The Assault Begins
00:46:23.698                             : en:"Man Down!"
00:52:24.516                             : en:KIA
00:54:05.117                             : en:Super Six One Down
01:02:19.444                             : en:Chalk Four Advances
01:07:27.835                             : en:Evacuating The Wounded
01:10:23.136                             : en:The Roadblock
01:14:14.784                             : en:Search & Rescue Team
01:15:51.088                             : en:Super Six Four Down
01:28:37.896                             : en:The Lost Convoy
01:30:27.380                             : en:Two-Man Rescue Squad
01:36:28.783                             : en:Crash Site Overrun
01:43:36.585                             : en:Sniper!
01:48:50.733                             : en:Durant The Hostage
01:50:52.563                             : en:Clamping The Artery
01:53:21.336                             : en:Night Battle
02:02:19.999                             : en:Little Bird Attack
02:06:21.991                             : en:The Rescue Convoy Arrives
02:08:06.846                             : en:Removing Walcott's Body
02:09:26.217                             : en:Rolling Out
02:11:29.757                             : en:Running The Mogadishu Mile
02:14:15.631                             : en:Return To Pakistan Stadium
02:20:14.364                             : en:American Heroes




Скриншоты:
[+] Всего файлов в раздаче - 1:
Black_Hawk_Down_(2001)_Ext_BDRip_HEVC_1080p_60fps.mkv8.64 GB

Отзывы
Зарегистрируйтесь чтобы добавить комментарий.
Обратная связь
Copyleft ©