↑↓Torrent.by
Поиск
Логин: Регистрация
Пароль: Восстановить пароль
Загрузка...

Толкин / Tolkien (2019) BDRip-AVC от New-Team | P | iTunes

Скачать tolkin-tolkien-2019-bdrip-avc-ot-new-team-p-itunes.torrent
U Магнитная ссылка Размер: 1.47 GB Раздают: 94 Качают: 25 Добавлен: 2019-08-10 14:47:22
Толкин / Tolkien (2019) BDRip-AVC от New-Team | P | iTunes

Толкин
Tolkien

«A Life of Love, Courage, and Fellowship»

Страна: США
Жанр:  драма, военный, биография
Год выпуска: 2019
Продолжительность: 01:51:42

Перевод: Профессиональный (многоголосый, закадровый) [iTunes]
Субтитры: русские (форсированные, полные), английские (полные, SDH)
Оригинальная аудиодорожка: английский

Режиссер: Доме Карукоски / Dome Karukoski

В ролях: Николас Холт, Al Bollands, Kallum Tolkien, Крэйг Робертс, Гарри Джилби, Колм Мини, Лаура Доннелли, Гильермо Бедуорд, Ниа Гвин, Пэм Феррис

Описание: Картина рассказывает о том, как молодой писатель, будучи изгоем во время обучения, находит дружбу, любовь и вдохновение. Фильм затронет участие Толкина в Первой мировой войне - он служил в британских войсках с 1916-го по 1920-й.

Релиз:

Автор рипа: stalkerok

Семпл

Качество видео: BDRip-AVC | Исходник: Tolkien2019.1080p.BluRay.Remux.AVC.DTS-HD.MA5.1-iFT
Формат видео: MKV
Видео кодек: AVC
Аудио кодек: AC3, AAC
Видео: AVC, 1340 Кбит/сек, 1046x438 (2.40:1), 23,976 кадр/сек
Аудио №1: AC3, 384 Кбит/сек, 48 КГц, 5.1 - русский
Аудио №2: AAC, 160 Кбит/сек, 48 КГц, 2.0 - английский
Навигация по главам: есть


[+] x264/MediaInfo


---[Information] [10.08.2019 1:27:29] x264 [info]: frame I:1320  Avg QP:16.47  size: 52952
---[Information] [10.08.2019 1:27:29] x264 [info]: frame P:31748 Avg QP:18.81  size: 16752
---[Information] [10.08.2019 1:27:29] x264 [info]: frame B:127622 Avg QP:21.28  size:  4082

General
Unique ID                                : 171722534527690462602161173859865291709 (0x81308EA08CBD711974FC76B7F8416BBD)
Complete name                            : C:tempTolkienTolkien.2019.BDRip.x264.Rus.stalkerok.New-Team.mkv
Format                                   : Matroska
Format version                           : Version 4
File size                                : 1.47 GiB
Duration                                 : 1 h 51 min
Overall bit rate                         : 1 887 kb/s
Movie name                               : Tolkien (2019) | Rip by stalkerok
Encoded date                             : UTC 2019-08-10 06:34:34
Writing application                      : mkvmerge v33.1.0 ('Primrose') 64-bit
Writing library                          : libebml v1.3.7 + libmatroska v1.5.0

Video
ID                                       : 1
Format                                   : AVC
Format/Info                              : Advanced Video Codec
Format profile                           : High@L4.1
Format settings                          : CABAC / 12 Ref Frames
Format settings, CABAC                   : Yes
Format settings, RefFrames               : 12 frames
Codec ID                                 : V_MPEG4/ISO/AVC
Duration                                 : 1 h 51 min
Bit rate                                 : 1 340 kb/s
Width                                    : 1 046 pixels
Height                                   : 438 pixels
Display aspect ratio                     : 2.40:1
Frame rate mode                          : Constant
Frame rate                               : 23.976 (24000/1001) FPS
Color space                              : YUV
Chroma subsampling                       : 4:2:0
Bit depth                                : 8 bits
Scan type                                : Progressive
Bits/(Pixel*Frame)                       : 0.122
Stream size                              : 1.05 GiB (71%)
Title                                    : Tolkien (2019) | Rip by stalkerok
Writing library                          : x264 core 158 r2984+49 6932f4a t_mod_New [0-bit@all X86_64]
Encoding settings                        : cabac=1 / ref=12 / deblock=1:-3:-2 / analyse=0x3:0x133 / me=umh / subme=11 / psy=1 / fade_compensate=0.00 / psy_rd=1.00:0.00 / mixed_ref=1 / me_range=32 / chroma_me=1 / trellis=2 / 8x8dct=1 / cqm=0 / deadzone=21,11 / fast_pskip=0 / chroma_qp_offset=-2 / threads=12 / lookahead_threads=3 / sliced_threads=0 / nr=0 / decimate=1 / interlaced=0 / bluray_compat=0 / constrained_intra=0 / fgo=0 / bframes=14 / b_pyramid=2 / b_adapt=2 / b_bias=0 / direct=3 / weightb=1 / open_gop=0 / weightp=2 / keyint=240 / keyint_min=23 / scenecut=40 / intra_refresh=0 / rc_lookahead=60 / rc=crf / mbtree=0 / crf=18.8000 / qcomp=0.65 / qpmin=0:0:0 / qpmax=69:69:69 / qpstep=4 / vbv_maxrate=50000 / vbv_bufsize=62500 / crf_max=0.0 / nal_hrd=none / filler=0 / ip_ratio=1.40 / pb_ratio=1.30 / aq=3:0.80 / aq-sensitivity=10.00 / aq-factor=1.00:1.00:1.00 / aq2=0 / aq3=0 / zones=151195,160689,q=32
Default                                  : Yes
Forced                                   : No

Audio #1
ID                                       : 2
Format                                   : AC-3
Format/Info                              : Audio Coding 3
Commercial name                          : Dolby Digital
Codec ID                                 : A_AC3
Duration                                 : 1 h 51 min
Bit rate mode                            : Constant
Bit rate                                 : 384 kb/s
Channel(s)                               : 6 channels
Channel layout                           : L R C LFE Ls Rs
Sampling rate                            : 48.0 kHz
Frame rate                               : 31.250 FPS (1536 SPF)
Bit depth                                : 16 bits
Compression mode                         : Lossy
Stream size                              : 307 MiB (20%)
Language                                 : Russian
Service kind                             : Complete Main
Default                                  : Yes
Forced                                   : No

Audio #2
ID                                       : 3
Format                                   : AAC LC
Format/Info                              : Advanced Audio Codec Low Complexity
Codec ID                                 : A_AAC-2
Duration                                 : 1 h 51 min
Bit rate                                 : 160 kb/s
Channel(s)                               : 2 channels
Channel layout                           : L R
Sampling rate                            : 48.0 kHz
Frame rate                               : 46.875 FPS (1024 SPF)
Compression mode                         : Lossy
Delay relative to video                  : 9 ms
Stream size                              : 128 MiB (8%)
Language                                 : English
Default                                  : No
Forced                                   : No

Text #1
ID                                       : 4
Format                                   : UTF-8
Codec ID                                 : S_TEXT/UTF8
Codec ID/Info                            : UTF-8 Plain Text
Duration                                 : 1 h 44 min
Bit rate                                 : 1 b/s
Count of elements                        : 27
Stream size                              : 1.45 KiB (0%)
Title                                    : Forced
Language                                 : Russian
Default                                  : Yes
Forced                                   : No

Text #2
ID                                       : 5
Format                                   : UTF-8
Codec ID                                 : S_TEXT/UTF8
Codec ID/Info                            : UTF-8 Plain Text
Duration                                 : 1 h 45 min
Bit rate                                 : 96 b/s
Count of elements                        : 1602
Stream size                              : 74.5 KiB (0%)
Title                                    : Full (FOCS)
Language                                 : Russian
Default                                  : No
Forced                                   : No

Text #3
ID                                       : 6
Format                                   : UTF-8
Codec ID                                 : S_TEXT/UTF8
Codec ID/Info                            : UTF-8 Plain Text
Duration                                 : 1 h 45 min
Bit rate                                 : 58 b/s
Count of elements                        : 1594
Stream size                              : 45.3 KiB (0%)
Language                                 : English
Default                                  : No
Forced                                   : No

Text #4
ID                                       : 7
Format                                   : UTF-8
Codec ID                                 : S_TEXT/UTF8
Codec ID/Info                            : UTF-8 Plain Text
Duration                                 : 1 h 45 min
Bit rate                                 : 66 b/s
Count of elements                        : 1759
Stream size                              : 51.7 KiB (0%)
Title                                    : SDH
Language                                 : English
Default                                  : No
Forced                                   : No

Menu
00:00:00.000                             : :Chapter 01
00:06:27.136                             : :Chapter 02
00:11:09.418                             : :Chapter 03
00:15:51.116                             : :Chapter 04
00:21:00.884                             : :Chapter 05
00:25:53.802                             : :Chapter 06
00:34:35.031                             : :Chapter 07
00:37:46.639                             : :Chapter 08
00:42:01.227                             : :Chapter 09
00:44:44.098                             : :Chapter 10
00:47:39.773                             : :Chapter 11
00:52:04.955                             : :Chapter 12
00:57:06.422                             : :Chapter 13
00:59:59.971                             : :Chapter 14
01:04:39.333                             : :Chapter 15
01:08:09.001                             : :Chapter 16
01:11:17.398                             : :Chapter 17
01:14:29.089                             : :Chapter 18
01:19:45.655                             : :Chapter 19
01:26:09.539                             : :Chapter 20
01:32:11.984                             : :Chapter 21
01:35:52.496                             : :Chapter 22
01:40:05.666                             : :Chapter 23
01:45:06.091                             : :Chapter 24




Скриншоты:
[+] Всего файлов в раздаче - 1:
Tolkien.2019.BDRip.x264.Rus.Eng.stalkerok.New-Team.mkv1.47 GB

Показать еще раздачи по запросу толкин:
2019-10-11 U Толкин / Tolkien (2019) BDRip 1080p от селезень | Лицензия 14.52 GB ↑ 29 ↓ 16
2019-10-11 U Толкин / Tolkien (2019) BDRip 720p от селезень | Лицензия 5.42 GB ↑ 30 ↓ 10
2019-10-11 U Толкин / Tolkien (2019) BDRip от MegaPeer | Лицензия 1.46 GB ↑ 61 ↓ 18
2019-09-22 U Джон Рональд Руэл Толкин - «Дж. Р. Р. Толкин с иллюстрациями Д. Гордеева» [6 книг] (2014-2019) FB2 57.61 MB ↑ 77 ↓ 13
2019-09-21 U Серия книг - «Дж. Р. Р. Толкин с иллюстрациями Д. Гордеева» [6 книг] (2014-2019) FB2 64.66 MB ↑ 94 ↓ 16
2019-08-11 U Толкин / Tolkien (2019) BDRip 720p от селезень | iTunes 4.58 GB ↑ 116 ↓ 23
2019-08-10 U Толкин / Tolkien (2019) BDRip 1080p от селезень | iTunes 13.68 GB ↑ 239 ↓ 100

Отзывы
Зарегистрируйтесь чтобы добавить комментарий.
Обратная связь
Copyleft ©