↑↓Torrent.by
Поиск
Логин: Регистрация
Пароль: Восстановить пароль
Загрузка...

Экспроприатор [01-08 из 16] (2019) WEBRip от GeneralFilm

Скачать ekspropriator-01-08-iz-16-2019-webrip-ot-generalfilm.torrent
U Магнитная ссылка Размер: 4.35 GB Раздают: 52 Качают: 94 Добавлен: 2019-08-10 14:47:32
Экспроприатор [01-08 из 16] (2019) WEBRip от GeneralFilm

Оригинальное название: Экспроприатор
Год выпуска: 2019
Жанр:  Криминал, триллер
Выпущено: Россия, «Фаворит фильм»
Режиссер: Владимир Краснопольский
В ролях: Артём Ткаченко, Артемий Шаффер, Павел Меленчук, Анна Табанина, Алексей Фатеев, Евгений Князев, Юрий Беляев, Соня Кравчук, Татьяна Абрамова, Анна Миклош, Наталья Круглова, Алексей Шевченков, Игорь Филиппов, Михаил Богдасаров, Егор Бакулин, Татьяна Чердынцева, Рамис Ибрагимов, Константин Глушков, Игорь Денисов, Евгения Любимова, Кирилл Продолятченко, Аркадий Коваль, Дмитрий Сутырин, Владимир Богданов, Сергей Русскин, Андрей Мокеев, Ольга Онищенко, Игорь Головин, Пётр Логачёв, Василий Щипицын, Михаил Касапов, Александр Демич (II), Олег Сенченко, Сергей Гамов, Светлана Селезнёва, Николай Иванов, Сергей Жукович, Вячеслав Павлють, Дмитрий Быковский-Ромашов, Олег Ткачёв, Сергей Власов (II)

О фильме: 1962 год. Молодой и удачливый вор Юрка-Барон, провернув очередную квартирную кражу, едет из Ленинграда в Москву, чтобы встретить с человеком из своего далёкого и страшного прошлого. В поезде он вспоминает свою жизнь, которая наверняка сложилась бы по-другому — если б не война, не репрессии и не родство матери с персональным шофёром Ленина, имевшим неосторожность написать крамольную рукопись…

Качество: WEBRip
Видео: XviD build 73, 720x400 (16:9), 25.000 fps, ~ 1300 Kbps (~ 0.180 bit/pixel)
Аудио: 48.0 kHz, AC3, 2/0 ch, 192 kbps
Продолжительность: 8 х ~ 00:50:00
Перевод: Не требуется [Русский]
Cубтитры: нет

Релиз:


[+] MediaInfo
General
Complete name               : D:RazdachiEkspropriator.2019.WEBRip.GeneralFilmEkspropriator.e01.avi
Format                      : AVI
Format/Info                 : Audio Video Interleave
File size                   : 557 MiB
Duration                    : 52 min 8 s
Overall bit rate            : 1 495 kb/s
Writing application         : VirtualDubMod 1.5.10.3 | www.virtualdub-fr.org || (build 2550/release)
Writing library             : VirtualDubMod build 2550/release

Video
ID                          : 0
Format                      : MPEG-4 Visual
Format profile              : Advanced Simple@L5
Format settings             : BVOP1 / Custom Matrix
Format settings, BVOP       : 1
Format settings, QPel       : No
Format settings, GMC        : No warppoints
Format settings, Matrix     : Custom
Codec ID                    : XVID
Codec ID/Hint               : XviD
Duration                    : 52 min 8 s
Bit rate                    : 1 293 kb/s
Width                       : 720 pixels
Height                      : 400 pixels
Display aspect ratio        : 16:9
Frame rate                  : 25.000 FPS
Color space                 : YUV
Chroma subsampling          : 4:2:0
Bit depth                   : 8 bits
Scan type                   : Progressive
Compression mode            : Lossy
Bits/(Pixel*Frame)          : 0.180
Stream size                 : 482 MiB (87%)
Writing library             : XviD 73

Audio
ID                          : 1
Format                      : AC-3
Format/Info                 : Audio Coding 3
Commercial name             : Dolby Digital
Codec ID                    : 2000
Duration                    : 52 min 8 s
Bit rate mode               : Constant
Bit rate                    : 192 kb/s
Channel(s)                  : 2 channels
Channel layout              : L R
Sampling rate               : 48.0 kHz
Frame rate                  : 31.250 FPS (1536 SPF)
Bit depth                   : 16 bits
Compression mode            : Lossy
Stream size                 : 71.6 MiB (13%)
Alignment                   : Split accross interleaves
Interleave, duration        : 40  ms (1.00 video frame)
Interleave, preload duratio : 500  ms
Service kind                : Complete Main



Скриншоты:
[+] Всего файлов в раздаче - 8:
Ekspropriator.e01.avi557.44 MB
Ekspropriator.e02.avi557.21 MB
Ekspropriator.e03.avi557.46 MB
Ekspropriator.e04.avi557.34 MB
Ekspropriator.e05.avi557.35 MB
Ekspropriator.e06.avi557.41 MB
Ekspropriator.e07.avi557.18 MB
Ekspropriator.e08.avi557.13 MB

Показать еще раздачи по запросу экспроприатор:
2019-08-18 U Экспроприатор [01-16 из 16] (2019) HDTVRip от Generalfilm | КПК 2.93 GB ↑ 69 ↓ 85
2019-08-17 U Экспроприатор [01-16 из 16] (2019) WEBRip от GeneralFilm 8.71 GB ↑ 59 ↓ 92
2019-08-16 U Экспроприатор [01-16 из 16] (2019) WEBRip от Files-x 10.12 GB ↑ 26 ↓ 101
2019-08-16 U Экспроприатор [01-16 из 16] (2019) HDTVRip-AVC от Files-x 12.06 GB ↑ 81 ↓ 163
2019-08-16 U Экспроприатор [01-16 из 16] (2019) HDTVRip 720p от GeneralFilm 20.31 GB ↑ 148 ↓ 288
2019-08-16 U Экспроприатор [01-16 из 16] (2019) HDTVRip от GeneralFilm 9.82 GB ↑ 104 ↓ 180
2019-08-16 U Экспроприатор [01-16 из 16] (2019) SATRip 10.18 GB ↑ 348 ↓ 609

Отзывы
Зарегистрируйтесь чтобы добавить комментарий.
Обратная связь
Copyleft ©