↑↓Torrent.by
Поиск
Логин: Регистрация
Пароль: Восстановить пароль
Загрузка...

Тор 2: Царство тьмы / Thor: The Dark World (2013) UHD BDRemux 2160p от селезень | 4K | HDR | D, A | Лицензия

Скачать tor-2-carstvo-tmy-thor-the-dark-world-2013-uhd-bdremux-2160p-ot-selezen-4k-hdr-d-a-licenziya.torrent
U Магнитная ссылка Размер: 44.61 GB Раздают: 43 Качают: 41 Добавлен: 2019-08-10 14:47:46
Тор 2: Царство тьмы / Thor: The Dark World (2013) UHD BDRemux 2160p от селезень | 4K | HDR | D, A | Лицензия

Название: Тор 2: Царство тьмы
Оригинальное название: Thor: The Dark World
Год выхода: 2013
Жанр: Фэнтези, боевик, приключения, супергерой
Режиссер: Алан Тейлор
В ролях: Крис Хемсворт, Натали Портман, Том Хиддлстон, Энтони Хопкинс, Джейми Александер, Рэй Стивенсон, Кэт Деннингс, Идрис Эльба, Стеллан Скарсгард, Рене Руссо, Кристофер Экклстон, Стэн Ли

О фильме: Тору предстоит сразиться за спасение Земли и Девяти Миров от таинственного врага из времен, предшествовавших возникновению вселенной. После событий «Тора» и «Мстителей» главный герой борется за восстановление порядка в космосе, но древняя раса во главе с мстительным Малекитом возвращается, чтобы погрузить вселенную обратно во тьму. Столкнувшись с врагом, которому не способен противостоять ни Один, ни весь Асгард, Тор отправляется в самое рискованное путешествие, которое воссоединит его с Джейн Фостер с Земли и заставит пожертвовать всем ради спасения вселенной.

Страна: США
Студия: Marvel Entertainment, Marvel Studios Inc.
Продолжительность: 01:52:03
Перевод(ы):
#1: Дублированный | Лицензия
#2: Авторский | Гаврилов

Качество: BDRemux 2160p
Видео: 3840x2160 at 23.976 fps, MPEG-H HEVC HDR Video, 46100 kbps avg
Звук:
Аудио #01: 48 kHz, AC3, 5.1, 640 Kbps | Лицензия | RUS |
Аудио #02: 48 kHz, DTS-HD MA, 7.1, 4971 Kbps | Гаврилов | RUS |
Аудио #03: 48 kHz, TrueHD, 7.1, 4579 Kbps | Оригинал |  ENG |
Аудио #04: 48 kHz, AC3, 5.1, 640 Kbps | Оригинал |  ENG |
Субтитры: Русские (Forced, 3 x full), английские

Релиз:


[+] MI
General
Unique ID                   : 254180595047067601541390970312083661081 (0xBF3966E4C66E736FCCF00A58486C6119)
Complete name               : D:Video111Thor.The.Dark.World.2013.BDREMUX.2160p.HDR.seleZen.mkv
Format                      : Matroska
Format version              : Version 4
File size                   : 44.6 GiB
Duration                    : 1 h 52 min
Overall bit rate mode       : Variable
Overall bit rate            : 57.0 Mb/s
Movie name                  : Thor: The Dark World 2013 4K from селезень
Encoded date                : UTC 2019-08-09 17:32:53
Writing application         : mkvmerge v22.0.0 ('At The End Of The World') 64-bit
Writing library             : libebml v1.3.5 + libmatroska v1.4.8

Video
ID                          : 1
Format                      : HEVC
Format/Info                 : High Efficiency Video Coding
Format profile              : Main 10@L5.1@High
HDR format                  : SMPTE ST 2086, HDR10 compatible
Codec ID                    : V_MPEGH/ISO/HEVC
Duration                    : 1 h 52 min
Bit rate                    : 46.1 Mb/s
Width                       : 3 840 pixels
Height                      : 2 160 pixels
Display aspect ratio        : 16:9
Frame rate mode             : Constant
Frame rate                  : 23.976 (24000/1001) FPS
Color space                 : YUV
Chroma subsampling          : 4:2:0 (Type 2)
Bit depth                   : 10 bits
Bits/(Pixel*Frame)          : 0.232
Stream size                 : 36.1 GiB (81%)
Language                    : English
Default                     : Yes
Forced                      : No
Color range                 : Limited
Color primaries             : BT.2020
Transfer characteristics    : PQ
Matrix coefficients         : BT.2020 non-constant
Mastering display color pri : Display P3
Mastering display luminance : min: 0.0050 cd/m2, max: 4000 cd/m2
Maximum Content Light Level : 600 cd/m2
Maximum Frame-Average Light : 600 cd/m2

Audio #1
ID                          : 2
Format                      : AC-3
Format/Info                 : Audio Coding 3
Commercial name             : Dolby Digital
Codec ID                    : A_AC3
Duration                    : 1 h 52 min
Bit rate mode               : Constant
Bit rate                    : 640 kb/s
Channel(s)                  : 6 channels
Channel layout              : L R C LFE Ls Rs
Sampling rate               : 48.0 kHz
Frame rate                  : 31.250 FPS (1536 SPF)
Bit depth                   : 16 bits
Compression mode            : Lossy
Stream size                 : 513 MiB (1%)
Title                       : Dub [License]
Language                    : Russian
Service kind                : Complete Main
Default                     : Yes
Forced                      : Yes

Audio #2
ID                          : 3
Format                      : DTS XLL
Format/Info                 : Digital Theater Systems
Commercial name             : DTS-HD Master Audio
Codec ID                    : A_DTS
Duration                    : 1 h 52 min
Bit rate mode               : Variable
Bit rate                    : 4 971 kb/s
Channel(s)                  : 8 channels
Channel layout              : C L R LFE Lb Rb Lss Rss
Sampling rate               : 48.0 kHz
Frame rate                  : 93.750 FPS (512 SPF)
Bit depth                   : 24 bits
Compression mode            : Lossless
Stream size                 : 3.89 GiB (9%)
Title                       : AVO [Gavrilov]
Language                    : Russian
Default                     : No
Forced                      : No

Audio #3
ID                          : 4
Format                      : MLP FBA 16-ch
Format/Info                 : Meridian Lossless Packing FBA with 16-channel presentation
Commercial name             : Dolby TrueHD with Dolby Atmos
Codec ID                    : A_TRUEHD
Duration                    : 1 h 52 min
Bit rate mode               : Variable
Bit rate                    : 4 579 kb/s
Maximum bit rate            : 8 301 kb/s
Channel(s)                  : 8 channels
Channel layout              : L R C LFE Ls Rs Lb Rb
Sampling rate               : 48.0 kHz
Frame rate                  : 1 200.000 FPS (40 SPF)
Compression mode            : Lossless
Stream size                 : 3.58 GiB (8%)
Title                       : Original
Language                    : English
Default                     : No
Forced                      : No
Number of dynamic objects   : 13
Bed channel count           : 1 channel
Bed channel configuration   : LFE

Audio #4
ID                          : 5
Format                      : AC-3
Format/Info                 : Audio Coding 3
Commercial name             : Dolby Digital
Codec ID                    : A_AC3
Duration                    : 1 h 52 min
Bit rate mode               : Constant
Bit rate                    : 640 kb/s
Channel(s)                  : 6 channels
Channel layout              : L R C LFE Ls Rs
Sampling rate               : 48.0 kHz
Frame rate                  : 31.250 FPS (1536 SPF)
Bit depth                   : 16 bits
Compression mode            : Lossy
Stream size                 : 513 MiB (1%)
Language                    : English
Service kind                : Complete Main
Default                     : No
Forced                      : No

Text #1
ID                          : 6
Format                      : UTF-8
Codec ID                    : S_TEXT/UTF8
Codec ID/Info               : UTF-8 Plain Text
Duration                    : 1 h 43 min
Bit rate                    : 2 b/s
Count of elements           : 37
Stream size                 : 1.76 KiB (0%)
Title                       : Forced
Language                    : Russian
Default                     : Yes
Forced                      : Yes

Text #2
ID                          : 7
Format                      : UTF-8
Codec ID                    : S_TEXT/UTF8
Codec ID/Info               : UTF-8 Plain Text
Duration                    : 1 h 45 min
Bit rate                    : 64 b/s
Count of elements           : 1089
Stream size                 : 49.8 KiB (0%)
Title                       : Full
Language                    : Russian
Default                     : No
Forced                      : No

Text #3
ID                          : 8
Format                      : UTF-8
Codec ID                    : S_TEXT/UTF8
Codec ID/Info               : UTF-8 Plain Text
Duration                    : 1 h 45 min
Bit rate                    : 73 b/s
Count of elements           : 1042
Stream size                 : 56.5 KiB (0%)
Title                       : Full [Анастасия Кисиленко (Medveditsa)]
Language                    : Russian
Default                     : No
Forced                      : No

Text #4
ID                          : 9
Format                      : UTF-8
Codec ID                    : S_TEXT/UTF8
Codec ID/Info               : UTF-8 Plain Text
Duration                    : 1 h 45 min
Bit rate                    : 64 b/s
Count of elements           : 1151
Stream size                 : 49.9 KiB (0%)
Title                       : Full [Notabenoid]
Language                    : Russian
Default                     : No
Forced                      : No

Text #5
ID                          : 10
Format                      : UTF-8
Codec ID                    : S_TEXT/UTF8
Codec ID/Info               : UTF-8 Plain Text
Duration                    : 1 h 15 min
Bit rate                    : 1 b/s
Count of elements           : 31
Stream size                 : 1 018 Bytes (0%)
Title                       : Forced
Language                    : English
Default                     : No
Forced                      : No

Text #6
ID                          : 11
Format                      : UTF-8
Codec ID                    : S_TEXT/UTF8
Codec ID/Info               : UTF-8 Plain Text
Duration                    : 1 h 45 min
Bit rate                    : 41 b/s
Count of elements           : 1138
Stream size                 : 32.4 KiB (0%)
Title                       : Full
Language                    : English
Default                     : No
Forced                      : No

Text #7
ID                          : 12
Format                      : UTF-8
Codec ID                    : S_TEXT/UTF8
Codec ID/Info               : UTF-8 Plain Text
Duration                    : 1 h 51 min
Bit rate                    : 44 b/s
Count of elements           : 1382
Stream size                 : 36.4 KiB (0%)
Title                       : SDH
Language                    : English
Default                     : No
Forced                      : No

Text #8
ID                          : 13
Format                      : UTF-8
Codec ID                    : S_TEXT/UTF8
Codec ID/Info               : UTF-8 Plain Text
Duration                    : 1 h 51 min
Bit rate                    : 56 b/s
Count of elements           : 1382
Stream size                 : 46.5 KiB (0%)
Title                       : SDH Colored
Language                    : English
Default                     : No
Forced                      : No

Menu
00:00:00.000                : en:Prologue
00:06:13.665                : en:The Nine Realms At Peace
00:13:05.535                : en:Strange Happenings In London
00:18:40.995                : en:The Aether Awakens
00:24:56.829                : en:Welcome To Asgard
00:29:07.663                : en:The Last Of The Kursed
00:41:33.366                : en:Attack On Asgard
00:49:40.227                : en:We Are Not Immortal
00:55:56.144                : en:Desperate Times
01:00:08.897                : en:Escape From Asgard
01:08:12.672                : en:Brothers In Arms
01:12:39.897                : en:Return To The Dark World
01:21:34.473                : en:Follow The Signs
01:26:22.094                : en:Thor Vs. Malekith Vs. The Convergence
01:33:58.800                : en:The Aether Unleashed
01:38:31.656                : en:Born To Be A King
01:41:49.520                : en:End Credits



Скриншоты:
[+] Всего файлов в раздаче - 1:
Thor.The.Dark.World.2013.BDREMUX.2160p.HDR.seleZen.mkv44.61 GB

Похожие раздачи по запросу - царство:
2019-06-14 U Тайное царство: Грибы, определившие наш мир / The Kingdom: How Fungi Made Our World (2018) HDTV 1080i | P 1К2.76 GB ↑ 237 ↓ 91
2018-05-29 U Царь обезьян: Царство женщин / Xi you ji nu er guo (2018) BDRip 1080p от Ash61 | 3D-Video | halfOU | L 14.53 GB ↑ 287 ↓ 40

Отзывы
Зарегистрируйтесь чтобы добавить комментарий.
Обратная связь
Copyleft ©