↑↓Torrent.by
Поиск
Логин: Регистрация
Пароль: Восстановить пароль
Загрузка...

Пандора / Pandora [01x01-04] (2019) WEBDLRip-AVC | LostFilm

Скачать pandora-01x01-04-2019-webdlrip-avc-lostfilm.torrent
U Магнитная ссылка Размер: 1.42 GB Раздают: 31 Качают: 20 Добавлен: 2019-08-10 14:47:53
Пандора / Pandora [01x01-04] (2019) WEBDLRip-AVC | LostFilm

Название: Пандора
Оригинальное название: Pandora
Год выхода: 2019
Жанр: фантастика, боевик, драма
Режиссер: Стивен Хьюз, Бретт Симмонс, Кристиан Госсетт
В ролях: Присцилла Квинтана, Рашель Банно, Ной Хантли, Темина Санни, Бен Рэдклифф, Ти Джэй Дженкенс, Карина Банно, Тина Каскиани, Оливер Денч

О фильме:
2199-й год. Потерявшая всё Джакс начинает новую жизнь в космической академии, где вместе с друзьями учится защищать планету от человеческих и инопланетных угроз. Однако правда о прошлом девушки может как спасти Вселенную, так и уничтожить её.

 
Страна: США
Студия: CW Television Network
Продолжительность: ~00:42:00 серия
Перевод: Профессиональный (многоголосый закадровый) LostFilm

Файл
Кодек: AVC / AC3
Качество: WEBDLRip-AVC
Видео: MPEG-4 AVC, 768x432 (16:9), 23.976 fps, ~1000 kbps avg, 0.126 bit/pixel
Звук: 48 kHz, AC3 Dolby Digital, 2/0 (L,R) ch, ~192 kbps avg
Субтитры: нет


[+] MI
Complete name               : D:РаздачаPandora (2019) S01Pandora (2019) S01E01 WEB-DLRip-AVC_ivanes.mkv
Format                      : Matroska
Format version              : Version 2
File size                   : 363 MiB
Duration                    : 42 min 32 s
Overall bit rate            : 1 192 kb/s
Movie name                  : Pandora (2019) S01E01 WEB-DLRip-AVC_ivanes
Encoded date                : UTC 2019-07-21 10:17:27
Writing application         : mkvmerge v4.4.0 ('Die Wiederkehr') сборка от Jan  3 2011 21:40:45
Writing library             : libebml v1.0.0 + libmatroska v1.0.0
Cover                       : Yes
Attachments                 : cover.jpg
Video
ID                          : 1
Format                      : AVC
Format/Info                 : Advanced Video Codec
Format profile              : High@L4.1
Format settings, CABAC      : Yes
Format settings, RefFrames  : 10 frames
Codec ID                    : V_MPEG4/ISO/AVC
Duration                    : 42 min 32 s
Bit rate                    : 999 kb/s
Width                       : 768 pixels
Height                      : 432 pixels
Display aspect ratio        : 16:9
Frame rate mode             : Constant
Frame rate                  : 23.976 (24000/1001) FPS
Color space                 : YUV
Chroma subsampling          : 4:2:0
Bit depth                   : 8 bits
Scan type                   : Progressive
Bits/(Pixel*Frame)          : 0.126
Stream size                 : 297 MiB (82%)
Title                       : Rip by ivanes
Writing library             : x264 core 157 r2969 d4099dd
Encoding settings           : cabac=1 / ref=10 / deblock=1:-3:-3 / analyse=0x3:0x113 / me=umh / subme=8 / psy=1 / psy_rd=1.00:0.00 / mixed_ref=1 / me_range=32 / chroma_me=1 / trellis=2 / 8x8dct=1 / cqm=0 / deadzone=21,11 / fast_pskip=0 / chroma_qp_offset=-2 / threads=12 / lookahead_threads=3 / sliced_threads=0 / nr=0 / decimate=1 / interlaced=0 / bluray_compat=0 / constrained_intra=0 / bframes=10 / b_pyramid=2 / b_adapt=2 / b_bias=0 / direct=1 / weightb=1 / open_gop=0 / weightp=2 / keyint=240 / keyint_min=23 / scenecut=40 / intra_refresh=0 / rc_lookahead=60 / rc=2pass / mbtree=0 / bitrate=999 / ratetol=1.0 / qcomp=0.60 / qpmin=0 / qpmax=69 / qpstep=4 / cplxblur=20.0 / qblur=0.5 / vbv_maxrate=50000 / vbv_bufsize=62500 / nal_hrd=none / filler=0 / ip_ratio=1.40 / pb_ratio=1.30 / aq=1:1.00
Default                     : Yes
Forced                      : No
Statistics Tags Issue       : mkvmerge v10.0.0 ('To Drown In You') 64bit 2019-07-21 10:16:58 / mkvmerge v4.4.0 ('Die Wiederkehr') сборка от Jan  3 2011 21:40:45 2019-07-21 10:17:27
FromStats_BitRate           : 998421
FromStats_Duration          : 00:42:32.550000000
FromStats_FrameCount        : 61200
FromStats_StreamSize        : 318565071
Audio
ID                          : 2
Format                      : AC-3
Format/Info                 : Audio Coding 3
Format settings, Endianness : Big
Codec ID                    : A_AC3
Duration                    : 42 min 32 s
Bit rate mode               : Constant
Bit rate                    : 192 kb/s
Channel(s)                  : 2 channels
Channel positions           : Front: L R
Sampling rate               : 48.0 kHz
Frame rate                  : 31.250 FPS (1536 SPF)
Bit depth                   : 16 bits
Compression mode            : Lossy
Stream size                 : 58.4 MiB (16%)
Title                       : LostFilm
Language                    : Russian
Service kind                : Complete Main
Default                     : Yes
Forced                      : No




Скриншоты:
[+] Всего файлов в раздаче - 4:
Pandora (2019) S01E01 RGzsRutracker_ivanes.mkv362.79 MB
Pandora (2019) S01E02 RGzsRutracker_ivanes.mkv362.36 MB
Pandora (2019) S01E03 RGzsRutracker_ivanes.mkv362.80 MB
Pandora (2019) S01E04 RGzsRutracker_ivanes.mkv361.27 MB

Похожие раздачи по запросу - пандора:
2019-07-24 U Пандора / Pandora [01x01-02 из 07] (2019) WEBRip 720p от Kerob | L2 1.88 GB ↑ 154 ↓ 69
2019-07-17 U Пандора / Pandora [01x01 из 07] (2019) WEBRip от Kerob | L2 445.86 MB ↑ 61 ↓ 17
2019-07-17 U Пандора / Pandora [01x01 из 07] (2019) WEBRip 720p от Kerob | L2 962.06 MB ↑ 54 ↓ 29
2018-01-11 U Пилот - Пандора (2018) MP3 178.31 MB ↑ 276 ↓ 37
2013-12-01 U Пандора [01-08 из 8] (2011) SATRip от КинозалSAT 4К4.30 GB ↑ 94 ↓ 46

Отзывы
Зарегистрируйтесь чтобы добавить комментарий.
Обратная связь
Copyleft ©