↑↓Torrent.by
Поиск
Логин: Регистрация
Пароль: Восстановить пароль
Загрузка...

Запрещенный прием / Sucker Punch (2011) HDRip-AVC | D | Расширенная версия

Скачать zapreschennyy-priem-sucker-punch-2011-hdrip-avc-d-rasshirennaya-versiya.torrent
U Магнитная ссылка Размер: 1.08 GB Раздают: 64 Качают: 16 Добавлен: 2019-08-10 14:47:58
Запрещенный прием / Sucker Punch (2011) HDRip-AVC | D | Расширенная версия

Название: Запрещенный прием
Оригинальное название: Sucker Punch
Год выхода: 2011
Жанр:  фэнтези, боевик, триллер, приключения
Режиссер: Зак Снайдер
В ролях: Эмили Браунинг, Эбби Корниш, Джена Мэлоун, Ванесса Энн Хадженс, Джеми Чунг, Карла Гуджино, Оскар Айзек, Джон Хэмм, Скотт Гленн, Ричард Цетрон

О фильме:
Действие развернется в 1950 году. Молодую девушку по настоянию ее злодейского отчима определяют в больницу для душевнобольных, где спустя пять дней главную героиню лоботомируют. Чтобы оградиться от боли, она выдумывает сказочный мир, где и начинает планировать свой побег — для этого ей нужно раздобыть пять предметов.

Выпущено: Warner Bros. Pictures
Продолжительность: 02:07:29
Перевод: Профессиональный (дублированный) [Blu-ray CEE + DVO Кубик в кубе (на расширенные сцены)]
Субтитры: русские (форс.), русские (Е.Воронин (Full + SDH)), английские (Full), английские (SDH)

Файл                                      
Формат: Matroska
Качество: HDRip-AVC | Расширенная версия
Видео: 796x332 at 23.976 fps, x264, ~1118 kbps
Аудио: AAC, 2 ch, ~96 kbps - | Русский | -
Формат субтитров: softsub (SRT)
Навигация по главам: есть

***Релиз от: -=DoMiNo=-


[+] M/I
General
Complete name               : Запрещенный прием.(2011).HDRip-AVC.Ext.[-=DoMiNo=-].mkv
Format                      : Matroska
Format version              : Version 4
File size                   : 1.08 GiB
Duration                    : 2 h 7 min
Overall bit rate            : 1 216 kb/s
Movie name                  : Запрещенный прием.(2011).HDRip-AVC.Ext.[-=DoMiNo=-]
Encoded date                : UTC 2019-08-10 06:20:58
Writing application         : mkvmerge v35.0.0 ('All The Love In The World') 64-bit
Writing library             : libebml v1.3.9 + libmatroska v1.5.2
Attachments                 : poster.jpg / poster 2.jpg

Video
ID                          : 1
Format                      : AVC
Format/Info                 : Advanced Video Codec
Format profile              : High@L4.1
Format settings             : CABAC / 14 Ref Frames
Format settings, CABAC      : Yes
Format settings, Reference  : 14 frames
Codec ID                    : V_MPEG4/ISO/AVC
Duration                    : 2 h 7 min
Bit rate                    : 1 118 kb/s
Width                       : 796 pixels
Height                      : 332 pixels
Display aspect ratio        : 2.40:1
Frame rate mode             : Constant
Frame rate                  : 23.976 (24000/1001) FPS
Color space                 : YUV
Chroma subsampling          : 4:2:0
Bit depth                   : 8 bits
Scan type                   : Progressive
Bits/(Pixel*Frame)          : 0.176
Stream size                 : 1 019 MiB (92%)
Title                       : RIP_BY_-=DoMiNo=-
Writing library             : x264 core 158 r2984 3759fcb
Encoding settings           : cabac=1 / ref=14 / deblock=1:-1:-1 / analyse=0x3:0x133 / me=umh / subme=11 / psy=1 / psy_rd=1.00:0.00 / mixed_ref=1 / me_range=32 / chroma_me=1 / trellis=2 / 8x8dct=1 / cqm=0 / deadzone=21,11 / fast_pskip=0 / chroma_qp_offset=-2 / threads=6 / lookahead_threads=1 / sliced_threads=0 / nr=0 / decimate=0 / interlaced=0 / bluray_compat=0 / constrained_intra=0 / bframes=12 / b_pyramid=2 / b_adapt=2 / b_bias=0 / direct=3 / weightb=1 / open_gop=0 / weightp=2 / keyint=250 / keyint_min=23 / scenecut=40 / intra_refresh=0 / rc_lookahead=40 / rc=2pass / mbtree=0 / bitrate=1118 / ratetol=1.0 / qcomp=0.65 / qpmin=0 / qpmax=69 / qpstep=4 / cplxblur=20.0 / qblur=0.5 / vbv_maxrate=50000 / vbv_bufsize=62500 / nal_hrd=none / filler=0 / ip_ratio=1.40 / pb_ratio=1.30 / aq=1:1.00
Language                    : English
Default                     : Yes
Forced                      : No

Audio
ID                          : 2
Format                      : AAC LC SBR
Format/Info                 : Advanced Audio Codec Low Complexity with Spectral Band Replication
Commercial name             : HE-AAC
Format settings             : NBC
Codec ID                    : A_AAC-5
Duration                    : 2 h 7 min
Bit rate                    : 96.0 kb/s
Channel(s)                  : 2 channels
Channel layout              : L R
Sampling rate               : 48.0 kHz
Frame rate                  : 23.438 FPS (2048 SPF)
Compression mode            : Lossy
Stream size                 : 87.5 MiB (8%)
Title                       : DUB_[Blu-ray CEE + DVO Кубик в кубе]
Language                    : Russian
Default                     : Yes
Forced                      : No

Text #1
ID                          : 3
Format                      : UTF-8
Codec ID                    : S_TEXT/UTF8
Codec ID/Info               : UTF-8 Plain Text
Duration                    : 1 h 7 min
Bit rate                    : 5 b/s
Count of elements           : 70
Stream size                 : 2.49 KiB (0%)
Title                       : Forced
Language                    : Russian
Default                     : No
Forced                      : Yes

Text #2
ID                          : 4
Format                      : UTF-8
Codec ID                    : S_TEXT/UTF8
Codec ID/Info               : UTF-8 Plain Text
Duration                    : 2 h 1 min
Bit rate                    : 57 b/s
Count of elements           : 1101
Stream size                 : 51.7 KiB (0%)
Title                       : Full [Voronine]
Language                    : Russian
Default                     : Yes
Forced                      : No

Text #3
ID                          : 5
Format                      : UTF-8
Codec ID                    : S_TEXT/UTF8
Codec ID/Info               : UTF-8 Plain Text
Duration                    : 2 h 1 min
Bit rate                    : 64 b/s
Count of elements           : 1271
Stream size                 : 57.9 KiB (0%)
Title                       : SDH [Voronine]
Language                    : Russian
Default                     : No
Forced                      : No

Text #4
ID                          : 6
Format                      : UTF-8
Codec ID                    : S_TEXT/UTF8
Codec ID/Info               : UTF-8 Plain Text
Duration                    : 2 h 1 min
Bit rate                    : 66 b/s
Count of elements           : 1095
Stream size                 : 59.1 KiB (0%)
Title                       : SDH
Language                    : Russian
Default                     : No
Forced                      : No

Text #5
ID                          : 7
Format                      : UTF-8
Codec ID                    : S_TEXT/UTF8
Codec ID/Info               : UTF-8 Plain Text
Duration                    : 2 h 7 min
Bit rate                    : 35 b/s
Count of elements           : 1089
Stream size                 : 33.4 KiB (0%)
Title                       : Full
Language                    : English
Default                     : No
Forced                      : No

Text #6
ID                          : 8
Format                      : UTF-8
Codec ID                    : S_TEXT/UTF8
Codec ID/Info               : UTF-8 Plain Text
Duration                    : 2 h 7 min
Bit rate                    : 38 b/s
Count of elements           : 1223
Stream size                 : 36.2 KiB (0%)
Title                       : SDH
Language                    : English
Default                     : No
Forced                      : No

Menu
00:00:00.000                : :00:00:00.000
00:05:59.985                : :00:05:59.985
00:12:25.703                : :00:12:25.703
00:24:59.456                : :00:24:59.456
00:36:15.590                : :00:36:15.590
00:42:35.720                : :00:42:35.720
00:57:42.501                : :00:57:42.501
01:01:29.936                : :01:01:29.936
01:21:13.118                : :01:21:13.118
01:37:03.526                : :01:37:03.526
01:53:19.543                : :01:53:19.543
02:01:45.757                : :02:01:45.757



Скриншоты:
[+] Всего файлов в раздаче - 1:
Запрещенный прием.(2011).HDRip-AVC.Ext.[-=DoMiNo=-].mkv1.08 GB

Похожие раздачи по запросу - запрещенный:
2019-08-10 U Запрещенный прием / Sucker Punch (2011) BDRip от HELLYWOOD | Расширенная версия / Extended Cut 2.98 GB ↑ 129 ↓ 57
2014-02-27 U Запрещенный прием / Sucker Punch (2011) BDRip [Расширенная версия] Кубик в кубе 1.47 GB ↑ 682 ↓ 12

Отзывы
Зарегистрируйтесь чтобы добавить комментарий.
Обратная связь
Copyleft ©