↑↓Torrent.by
Поиск
Логин: Регистрация
Пароль: Восстановить пароль
Загрузка...

Толкин / Tolkien (2019) BDRip 720p от селезень | iTunes

Скачать tolkin-tolkien-2019-bdrip-720p-ot-selezen-itunes.torrent
U Магнитная ссылка Размер: 4.58 GB Раздают: 82 Качают: 19 Добавлен: 2019-08-11 07:29:45
Толкин / Tolkien (2019) BDRip 720p от селезень | iTunes

Название: Толкин
Оригинальное название: Tolkien
Год выхода: 2019
Жанр: Драма, биография
Режиссер: Доме Карукоски
В ролях: Лили Коллинз, Николас Холт, Лора Доннелли, Патрик Гибсон, Женевьев О'Рейли, Пэм Феррис, Дерек Джекоби, Колм Мини, Крэйг Робертс, Мими Кин, Гарри Джилби, Гильермо Бедуорд, Ниа Гвин

О фильме: Картина рассказывает о том, как молодой писатель, будучи изгоем во время обучения, находит дружбу, любовь и вдохновение. Фильм затронет участие Толкина в Первой мировой войне — он служил в британских войсках с 1916-го по 1920-й.

Страна: США
Студия: Fox Searchlight Pictures, Chernin Entertainment
Продолжительность: 01:51:42
Перевод: Профессиональный многоголосый | iTunes

Качество: BDRip 720p
Видео: MPEG-4 AVC, 1280x536, 4837 Kbit/s, 23.976 fps
Звук:
Аудио #01: 48 kHz, AC3, 5.1, 384 Kbps | iTunes | RUS |
Аудио #02: 48 kHz, AC3, 2.0, 192 Kbps | iTunes | UKR |
Аудио #03: 48 kHz, AC3, 5.1, 448 Kbps | Оригинал |  ENG |
Субтитры: Русские (Forced, 2 x full), английские

Релиз:


[+] MI
General
Unique ID                   : 83654546644051161797395115895396900689 (0x3EEF4796438010CB057ED27896321F51)
Complete name               : D:Video111Tolkien.2019.BDRip.720p.seleZen.mkv
Format                      : Matroska
Format version              : Version 4
File size                   : 4.58 GiB
Duration                    : 1 h 51 min
Overall bit rate            : 5 864 kb/s
Movie name                  : Tolkien 2019 from селезень
Encoded date                : UTC 2019-08-10 12:39:12
Writing application         : mkvmerge v22.0.0 ('At The End Of The World') 64-bit
Writing library             : libebml v1.3.5 + libmatroska v1.4.8

Video
ID                          : 1
Format                      : AVC
Format/Info                 : Advanced Video Codec
Format profile              : High@L4.1
Format settings             : CABAC / 12 Ref Frames
Format settings, CABAC      : Yes
Format settings, Reference  : 12 frames
Codec ID                    : V_MPEG4/ISO/AVC
Duration                    : 1 h 51 min
Bit rate                    : 4 837 kb/s
Width                       : 1 280 pixels
Height                      : 536 pixels
Display aspect ratio        : 2.40:1
Frame rate mode             : Constant
Frame rate                  : 23.976 (24000/1001) FPS
Color space                 : YUV
Chroma subsampling          : 4:2:0
Bit depth                   : 8 bits
Scan type                   : Progressive
Bits/(Pixel*Frame)          : 0.294
Stream size                 : 3.77 GiB (82%)
Title                       : HDH
Writing library             : x264 core 142 r2431+42 c69a006 tMod [8-bit@4:2:0 X86_64]
Encoding settings           : cabac=1 / ref=12 / deblock=1:-3:-3 / analyse=0x3:0x113 / me=umh / subme=10 / psy=1 / fade_compensate=0.00 / psy_rd=1.00:0.05 / mixed_ref=1 / me_range=32 / chroma_me=1 / trellis=2 / 8x8dct=1 / cqm=0 / deadzone=21,11 / fast_pskip=0 / chroma_qp_offset=-2 / threads=48 / lookahead_threads=4 / sliced_threads=0 / nr=0 / decimate=1 / interlaced=0 / bluray_compat=0 / constrained_intra=0 / fgo=0 / bframes=8 / b_pyramid=2 / b_adapt=2 / b_bias=0 / direct=3 / weightb=1 / open_gop=0 / weightp=2 / keyint=250 / keyint_min=23 / scenecut=40 / intra_refresh=0 / rc=crf / mbtree=0 / crf=16.0000 / qcomp=0.60 / qpmin=0:0:0 / qpmax=69:69:69 / qpstep=4 / ip_ratio=1.40 / pb_ratio=1.30 / aq=3:0.80 / aq-sensitivity=10.00 / aq-factor=1.00:1.00:1.00 / aq2=0 / aq3=0
Language                    : English
Default                     : Yes
Forced                      : No
Color range                 : Limited
Matrix coefficients         : BT.709

Audio #1
ID                          : 2
Format                      : AC-3
Format/Info                 : Audio Coding 3
Commercial name             : Dolby Digital
Codec ID                    : A_AC3
Duration                    : 1 h 51 min
Bit rate mode               : Constant
Bit rate                    : 384 kb/s
Channel(s)                  : 6 channels
Channel layout              : L R C LFE Ls Rs
Sampling rate               : 48.0 kHz
Frame rate                  : 31.250 FPS (1536 SPF)
Bit depth                   : 16 bits
Compression mode            : Lossy
Stream size                 : 307 MiB (7%)
Title                       : iTunes
Language                    : Russian
Service kind                : Complete Main
Default                     : Yes
Forced                      : Yes

Audio #2
ID                          : 3
Format                      : AC-3
Format/Info                 : Audio Coding 3
Commercial name             : Dolby Digital
Codec ID                    : A_AC3
Duration                    : 1 h 51 min
Bit rate mode               : Constant
Bit rate                    : 192 kb/s
Channel(s)                  : 2 channels
Channel layout              : L R
Sampling rate               : 48.0 kHz
Frame rate                  : 31.250 FPS (1536 SPF)
Bit depth                   : 16 bits
Compression mode            : Lossy
Stream size                 : 153 MiB (3%)
Title                       : iTunes
Language                    : Ukrainian
Service kind                : Complete Main
Default                     : No
Forced                      : No

Audio #3
ID                          : 4
Format                      : AC-3
Format/Info                 : Audio Coding 3
Commercial name             : Dolby Digital
Codec ID                    : A_AC3
Duration                    : 1 h 51 min
Bit rate mode               : Constant
Bit rate                    : 448 kb/s
Channel(s)                  : 6 channels
Channel layout              : L R C LFE Ls Rs
Sampling rate               : 48.0 kHz
Frame rate                  : 31.250 FPS (1536 SPF)
Bit depth                   : 16 bits
Compression mode            : Lossy
Stream size                 : 358 MiB (8%)
Title                       : [Original]
Language                    : English
Service kind                : Complete Main
Default                     : No
Forced                      : No

Text #1
ID                          : 5
Format                      : UTF-8
Codec ID                    : S_TEXT/UTF8
Codec ID/Info               : UTF-8 Plain Text
Duration                    : 1 h 44 min
Bit rate                    : 1 b/s
Count of elements           : 22
Stream size                 : 1.41 KiB (0%)
Title                       : Forced (iTunes)
Language                    : Russian
Default                     : Yes
Forced                      : Yes

Text #2
ID                          : 6
Format                      : UTF-8
Codec ID                    : S_TEXT/UTF8
Codec ID/Info               : UTF-8 Plain Text
Duration                    : 1 h 45 min
Bit rate                    : 81 b/s
Count of elements           : 1386
Stream size                 : 62.8 KiB (0%)
Title                       : Full (iTunes)
Language                    : Russian
Default                     : No
Forced                      : No

Text #3
ID                          : 7
Format                      : UTF-8
Codec ID                    : S_TEXT/UTF8
Codec ID/Info               : UTF-8 Plain Text
Duration                    : 1 h 45 min
Bit rate                    : 96 b/s
Count of elements           : 1600
Stream size                 : 74.3 KiB (0%)
Title                       : Full (Focs)
Language                    : Russian
Default                     : No
Forced                      : No

Text #4
ID                          : 8
Format                      : UTF-8
Codec ID                    : S_TEXT/UTF8
Codec ID/Info               : UTF-8 Plain Text
Duration                    : 1 h 45 min
Bit rate                    : 58 b/s
Count of elements           : 1594
Stream size                 : 45.3 KiB (0%)
Title                       : Full
Language                    : English
Default                     : No
Forced                      : No

Text #5
ID                          : 9
Format                      : UTF-8
Codec ID                    : S_TEXT/UTF8
Codec ID/Info               : UTF-8 Plain Text
Duration                    : 1 h 45 min
Bit rate                    : 66 b/s
Count of elements           : 1759
Stream size                 : 51.7 KiB (0%)
Title                       : SDH
Language                    : English
Default                     : No
Forced                      : No

Menu
00:00:00.000                : en:Chapter 01
00:06:27.137                : en:Chapter 02
00:11:09.419                : en:Chapter 03
00:15:51.117                : en:Chapter 04
00:21:00.885                : en:Chapter 05
00:25:53.802                : en:Chapter 06
00:34:35.031                : en:Chapter 07
00:37:46.639                : en:Chapter 08
00:42:01.227                : en:Chapter 09
00:44:44.098                : en:Chapter 10
00:47:39.774                : en:Chapter 11
00:52:04.955                : en:Chapter 12
00:57:06.423                : en:Chapter 13
00:59:59.971                : en:Chapter 14
01:04:39.334                : en:Chapter 15
01:08:09.002                : en:Chapter 16
01:11:17.398                : en:Chapter 17
01:14:29.090                : en:Chapter 18
01:19:45.656                : en:Chapter 19
01:26:09.539                : en:Chapter 20
01:32:11.985                : en:Chapter 21
01:35:52.497                : en:Chapter 22
01:40:05.666                : en:Chapter 23
01:45:06.091                : en:Chapter 24



Скриншоты:
[+] Всего файлов в раздаче - 1:
Tolkien.2019.BDRip.720p.seleZen.mkv4.58 GB

Показать еще раздачи по запросу толкин:
2019-08-11 U Толкин / Tolkien (2019) BDRip-HEVC 1080p | P | iTunes 7.02 GB ↑ 91 ↓ 38
2019-08-11 U Толкин / Tolkien (2019) BDRip-AVC от New-Team | P | iTunes 2.08 GB ↑ 48 ↓ 10
2019-08-10 U Толкин / Tolkien (2019) BDRip-AVC от New-Team | P | iTunes 1.47 GB ↑ 77 ↓ 24
2019-08-10 U Толкин / Tolkien (2019) BDRip 1080p от селезень | iTunes 13.68 GB ↑ 131 ↓ 100
2019-08-10 U Толкин / Tolkien (2019) BDRip от MegaPeer | iTunes 1.41 GB ↑ 44 ↓ 13
2019-08-07 U Толкин / Tolkien (2019) BDRip от MegaPeer | HDRezka Studio 1.46 GB ↑ 76 ↓ 28
2019-07-30 U Толкин / Tolkien (2019) WEB-DLRip-AVC от OlLanDGroup | P 1.55 GB ↑ 28 ↓ 20

Отзывы
Зарегистрируйтесь чтобы добавить комментарий.
Обратная связь
Copyleft ©