↑↓Torrent.by
Поиск
Логин: Регистрация
Пароль: Восстановить пароль
Загрузка...

Толкин / Tolkien (2019) BDRip-AVC от New-Team | P | iTunes

Скачать tolkin-tolkien-2019-bdrip-avc-ot-new-team-p-itunes.torrent
U Магнитная ссылка Размер: 2.08 GB Раздают: 43 Качают: 9 Добавлен: 2019-08-11 07:30:07
Толкин / Tolkien (2019) BDRip-AVC от New-Team | P | iTunes

Толкин
Tolkien

«A Life of Love, Courage, and Fellowship»

Страна: США
Жанр:  драма, военный, биография
Год выпуска: 2019
Продолжительность: 01:51:42

Перевод: Профессиональный (многоголосый, закадровый) [iTunes]
Субтитры: русские (форсированные, полные), английские (полные, SDH)
Оригинальная аудиодорожка: английский

Режиссер: Доме Карукоски / Dome Karukoski

В ролях: Николас Холт, Al Bollands, Kallum Tolkien, Крэйг Робертс, Гарри Джилби, Колм Мини, Лаура Доннелли, Гильермо Бедуорд, Ниа Гвин, Пэм Феррис

Описание: Картина рассказывает о том, как молодой писатель, будучи изгоем во время обучения, находит дружбу, любовь и вдохновение. Фильм затронет участие Толкина в Первой мировой войне - он служил в британских войсках с 1916-го по 1920-й.

Релиз:

Автор рипа: stalkerok

Семпл

Качество видео: BDRip-AVC | Исходник: Tolkien2019.1080p.BluRay.Remux.AVC.DTS-HD.MA5.1-iFT
Формат видео: MKV
Видео кодек: AVC
Аудио кодек: AC3
Видео: AVC, 1829 Кбит/сек, 1152x482 (2.40:1), 23,976 кадр/сек
Аудио №1: AC3, 384 Кбит/сек, 48 КГц, 5.1 - русский
Аудио №2: AC3, 448 Кбит/сек, 48 КГц, 5.1 - английский
Навигация по главам: есть


[+] x264/MediaInfo


---[Information] [10.08.2019 13:20:56] x264 [info]: frame I:1309  Avg QP:15.95  size: 67377
---[Information] [10.08.2019 13:20:56] x264 [info]: frame P:31505 Avg QP:18.19  size: 22447
---[Information] [10.08.2019 13:20:56] x264 [info]: frame B:127876 Avg QP:20.50  size:  5767

General
Unique ID                                : 196460721784852448591299125976698999957 (0x93CCF56D3DBC3269DA4EC8DB4C185495)
Complete name                            : C:tempTolkienTolkien.2019.BDRip.x264.Rus.Eng.stalkerok.New-Team..mkv
Format                                   : Matroska
Format version                           : Version 4
File size                                : 2.08 GiB
Duration                                 : 1 h 51 min
Overall bit rate                         : 2 664 kb/s
Movie name                               : Tolkien (2019) | Rip by stalkerok
Encoded date                             : UTC 2019-08-10 10:59:59
Writing application                      : mkvmerge v33.1.0 ('Primrose') 64-bit
Writing library                          : libebml v1.3.7 + libmatroska v1.5.0

Video
ID                                       : 1
Format                                   : AVC
Format/Info                              : Advanced Video Codec
Format profile                           : High@L4.1
Format settings                          : CABAC / 12 Ref Frames
Format settings, CABAC                   : Yes
Format settings, RefFrames               : 12 frames
Codec ID                                 : V_MPEG4/ISO/AVC
Duration                                 : 1 h 51 min
Bit rate                                 : 1 830 kb/s
Width                                    : 1 152 pixels
Height                                   : 482 pixels
Display aspect ratio                     : 2.40:1
Frame rate mode                          : Constant
Frame rate                               : 23.976 (24000/1001) FPS
Color space                              : YUV
Chroma subsampling                       : 4:2:0
Bit depth                                : 8 bits
Scan type                                : Progressive
Bits/(Pixel*Frame)                       : 0.137
Stream size                              : 1.43 GiB (69%)
Title                                    : Tolkien (2019) | Rip by stalkerok
Writing library                          : x264 core 158 r2984+49 6932f4a t_mod_New [0-bit@all X86_64]
Encoding settings                        : cabac=1 / ref=12 / deblock=1:-3:-2 / analyse=0x3:0x133 / me=umh / subme=11 / psy=1 / fade_compensate=0.00 / psy_rd=1.00:0.00 / mixed_ref=1 / me_range=32 / chroma_me=1 / trellis=2 / 8x8dct=1 / cqm=0 / deadzone=21,11 / fast_pskip=0 / chroma_qp_offset=-2 / threads=12 / lookahead_threads=3 / sliced_threads=0 / nr=0 / decimate=1 / interlaced=0 / bluray_compat=0 / constrained_intra=0 / fgo=0 / bframes=14 / b_pyramid=2 / b_adapt=2 / b_bias=0 / direct=3 / weightb=1 / open_gop=0 / weightp=2 / keyint=240 / keyint_min=23 / scenecut=40 / intra_refresh=0 / rc_lookahead=60 / rc=crf / mbtree=0 / crf=18.4000 / qcomp=0.65 / qpmin=0:0:0 / qpmax=69:69:69 / qpstep=4 / vbv_maxrate=50000 / vbv_bufsize=62500 / crf_max=0.0 / nal_hrd=none / filler=0 / ip_ratio=1.40 / pb_ratio=1.30 / aq=3:0.80 / aq-sensitivity=10.00 / aq-factor=1.00:1.00:1.00 / aq2=0 / aq3=0 / zones=151195,160689,q=30
Default                                  : Yes
Forced                                   : No

Audio #1
ID                                       : 2
Format                                   : AC-3
Format/Info                              : Audio Coding 3
Commercial name                          : Dolby Digital
Codec ID                                 : A_AC3
Duration                                 : 1 h 51 min
Bit rate mode                            : Constant
Bit rate                                 : 384 kb/s
Channel(s)                               : 6 channels
Channel layout                           : L R C LFE Ls Rs
Sampling rate                            : 48.0 kHz
Frame rate                               : 31.250 FPS (1536 SPF)
Bit depth                                : 16 bits
Compression mode                         : Lossy
Stream size                              : 307 MiB (14%)
Title                                    : MVO (iTunes)
Language                                 : Russian
Service kind                             : Complete Main
Default                                  : Yes
Forced                                   : No

Audio #2
ID                                       : 3
Format                                   : AC-3
Format/Info                              : Audio Coding 3
Commercial name                          : Dolby Digital
Codec ID                                 : A_AC3
Duration                                 : 1 h 51 min
Bit rate mode                            : Constant
Bit rate                                 : 448 kb/s
Channel(s)                               : 6 channels
Channel layout                           : L R C LFE Ls Rs
Sampling rate                            : 48.0 kHz
Frame rate                               : 31.250 FPS (1536 SPF)
Bit depth                                : 16 bits
Compression mode                         : Lossy
Stream size                              : 358 MiB (17%)
Language                                 : English
Service kind                             : Complete Main
Default                                  : No
Forced                                   : No

Text #1
ID                                       : 4
Format                                   : UTF-8
Codec ID                                 : S_TEXT/UTF8
Codec ID/Info                            : UTF-8 Plain Text
Duration                                 : 1 h 44 min
Bit rate                                 : 1 b/s
Count of elements                        : 27
Stream size                              : 1.45 KiB (0%)
Title                                    : Forced
Language                                 : Russian
Default                                  : Yes
Forced                                   : No

Text #2
ID                                       : 5
Format                                   : UTF-8
Codec ID                                 : S_TEXT/UTF8
Codec ID/Info                            : UTF-8 Plain Text
Duration                                 : 1 h 45 min
Bit rate                                 : 81 b/s
Count of elements                        : 1386
Stream size                              : 62.8 KiB (0%)
Title                                    : Full (iTunes)
Language                                 : Russian
Default                                  : No
Forced                                   : No

Text #3
ID                                       : 6
Format                                   : UTF-8
Codec ID                                 : S_TEXT/UTF8
Codec ID/Info                            : UTF-8 Plain Text
Duration                                 : 1 h 45 min
Bit rate                                 : 96 b/s
Count of elements                        : 1602
Stream size                              : 74.5 KiB (0%)
Title                                    : Full (FOCS)
Language                                 : Russian
Default                                  : No
Forced                                   : No

Text #4
ID                                       : 7
Format                                   : UTF-8
Codec ID                                 : S_TEXT/UTF8
Codec ID/Info                            : UTF-8 Plain Text
Duration                                 : 1 h 45 min
Bit rate                                 : 58 b/s
Count of elements                        : 1594
Stream size                              : 45.3 KiB (0%)
Title                                    : Full
Language                                 : English
Default                                  : No
Forced                                   : No

Text #5
ID                                       : 8
Format                                   : UTF-8
Codec ID                                 : S_TEXT/UTF8
Codec ID/Info                            : UTF-8 Plain Text
Duration                                 : 1 h 45 min
Bit rate                                 : 66 b/s
Count of elements                        : 1759
Stream size                              : 51.7 KiB (0%)
Title                                    : SDH
Language                                 : English
Default                                  : No
Forced                                   : No

Menu
00:00:00.000                             : :Chapter 01
00:06:27.136                             : :Chapter 02
00:11:09.418                             : :Chapter 03
00:15:51.116                             : :Chapter 04
00:21:00.884                             : :Chapter 05
00:25:53.802                             : :Chapter 06
00:34:35.031                             : :Chapter 07
00:37:46.639                             : :Chapter 08
00:42:01.227                             : :Chapter 09
00:44:44.098                             : :Chapter 10
00:47:39.773                             : :Chapter 11
00:52:04.955                             : :Chapter 12
00:57:06.422                             : :Chapter 13
00:59:59.971                             : :Chapter 14
01:04:39.333                             : :Chapter 15
01:08:09.001                             : :Chapter 16
01:11:17.398                             : :Chapter 17
01:14:29.089                             : :Chapter 18
01:19:45.655                             : :Chapter 19
01:26:09.539                             : :Chapter 20
01:32:11.984                             : :Chapter 21
01:35:52.496                             : :Chapter 22
01:40:05.666                             : :Chapter 23
01:45:06.091                             : :Chapter 24




Скриншоты:
[+] Всего файлов в раздаче - 1:
Tolkien.2019.BDRip.x264.Rus.Eng.stalkerok.New-Team..mkv2.08 GB

Показать еще раздачи по запросу толкин:
2019-08-11 U Толкин / Tolkien (2019) BDRip-HEVC 1080p | P | iTunes 7.02 GB ↑ 90 ↓ 37
2019-08-11 U Толкин / Tolkien (2019) BDRip 720p от селезень | iTunes 4.58 GB ↑ 79 ↓ 19
2019-08-10 U Толкин / Tolkien (2019) BDRip-AVC от New-Team | P | iTunes 1.47 GB ↑ 74 ↓ 24
2019-08-10 U Толкин / Tolkien (2019) BDRip 1080p от селезень | iTunes 13.68 GB ↑ 114 ↓ 100
2019-08-10 U Толкин / Tolkien (2019) BDRip от MegaPeer | iTunes 1.41 GB ↑ 44 ↓ 13
2019-08-07 U Толкин / Tolkien (2019) BDRip от MegaPeer | HDRezka Studio 1.46 GB ↑ 69 ↓ 28
2019-07-30 U Толкин / Tolkien (2019) WEB-DLRip-AVC от OlLanDGroup | P 1.55 GB ↑ 28 ↓ 20

Отзывы
Зарегистрируйтесь чтобы добавить комментарий.
Обратная связь
Copyleft ©