↑↓Torrent.by
Поиск
Логин: Регистрация
Пароль: Восстановить пароль
Загрузка...

Толкин / Tolkien (2019) BDRip-HEVC 1080p | P | iTunes

Скачать tolkin-tolkien-2019-bdrip-hevc-1080p-p-itunes.torrent
U Магнитная ссылка Размер: 7.02 GB Раздают: 92 Качают: 38 Добавлен: 2019-08-11 17:05:47
Толкин / Tolkien (2019) BDRip-HEVC 1080p | P | iTunes

Название: Толкин
Оригинальное название: Tolkien
Год выхода: 2019
Жанр: драма, военный, биография

Режиссер: Доме Карукоски

В ролях: Николас Холт, Al Bollands, Kallum Tolkien, Крэйг Робертс, Гарри Джилби, Колм Мини, Лаура Доннелли, Гильермо Бедуорд, Ниа Гвин, Пэм Феррис

О фильме: Картина рассказывает о том, как молодой писатель, будучи изгоем во время обучения, находит дружбу, любовь и вдохновение. Фильм затронет участие Толкина в Первой мировой войне — он служил в британских войсках с 1916-го по 1920-й.

Страна: США
Продолжительность: 01:51:42
Перевод: Профессиональный (многоголосый, закадровый) | iTunes

Файл
Кодек: H.265
Качество: BDRip-HEVC 1080p
Видео: HEVC, 1920x800 (2.40:1), 23.976 fps, 6 909 kb/s, 10 bit
Аудио 1: AC3, 48.0 kHz, 6 ch, 384 Kbps | RUS (MVO / iTunes)
Аудио 2: AC3, 48.0 kHz, 2 ch, 192 Kbps | UKR (DUB / iTunes)
Аудио 3: DTS, 48.0 kHz, 6 ch, 1509 Kbps | ENG (Оригинал)
Субтитры: Русские (форс., полные), украинские (форс., полные), английские (полные, SDH, комментарии)


[+] MI
General
Unique ID                                : 204420278640906759621914856097709073606 (0x99C9E9E0DDFDDA61A357F3037880A4C6)
Complete name                            : Tolkien(2019).BDRip.1080p.HEVC.mkv
Format                                   : Matroska
Format version                           : Version 4
File size                                : 7.02 GiB
Duration                                 : 1 h 51 min
Overall bit rate                         : 8 998 kb/s
Encoded date                             : UTC 2019-08-10 19:20:30
Writing application                      : mkvmerge v8.3.0 ('Over the Horizon') 64bit
Writing library                          : libebml v1.3.1 + libmatroska v1.4.2

Video
ID                                       : 1
Format                                   : HEVC
Format/Info                              : High Efficiency Video Coding
Format profile                           : Main 10@L4.1@High
Codec ID                                 : V_MPEGH/ISO/HEVC
Duration                                 : 1 h 51 min
Bit rate                                 : 6 909 kb/s
Width                                    : 1 920 pixels
Height                                   : 800 pixels
Display aspect ratio                     : 2.40:1
Frame rate mode                          : Constant
Frame rate                               : 23.976 (24000/1001) FPS
Color space                              : YUV
Chroma subsampling                       : 4:2:0
Bit depth                                : 10 bits
Bits/(Pixel*Frame)                       : 0.188
Stream size                              : 5.39 GiB (77%)
Language                                 : English
Default                                  : Yes
Forced                                   : No
Color range                              : Limited
Color primaries                          : BT.709
Transfer characteristics                 : BT.709
Matrix coefficients                      : BT.709

Audio #1
ID                                       : 2
Format                                   : AC-3
Format/Info                              : Audio Coding 3
Commercial name                          : Dolby Digital
Codec ID                                 : A_AC3
Duration                                 : 1 h 51 min
Bit rate mode                            : Constant
Bit rate                                 : 384 kb/s
Channel(s)                               : 6 channels
Channel layout                           : L R C LFE Ls Rs
Sampling rate                            : 48.0 kHz
Frame rate                               : 31.250 FPS (1536 SPF)
Bit depth                                : 16 bits
Compression mode                         : Lossy
Stream size                              : 307 MiB (4%)
Title                                    : MVO (iTunes)
Language                                 : Russian
Default                                  : Yes
Forced                                   : No

Audio #2
ID                                       : 3
Format                                   : AC-3
Format/Info                              : Audio Coding 3
Commercial name                          : Dolby Digital
Codec ID                                 : A_AC3
Duration                                 : 1 h 51 min
Bit rate mode                            : Constant
Bit rate                                 : 192 kb/s
Channel(s)                               : 2 channels
Channel layout                           : L R
Sampling rate                            : 48.0 kHz
Frame rate                               : 31.250 FPS (1536 SPF)
Bit depth                                : 16 bits
Compression mode                         : Lossy
Stream size                              : 153 MiB (2%)
Title                                    : DUB ( iTunes)
Language                                 : Ukrainian
Default                                  : No
Forced                                   : No

Audio #3
ID                                       : 4
Format                                   : DTS
Format/Info                              : Digital Theater Systems
Codec ID                                 : A_DTS
Duration                                 : 1 h 51 min
Bit rate mode                            : Constant
Bit rate                                 : 1 509 kb/s
Channel(s)                               : 6 channels
Channel layout                           : C L R Ls Rs LFE
Sampling rate                            : 48.0 kHz
Frame rate                               : 93.750 FPS (512 SPF)
Bit depth                                : 24 bits
Compression mode                         : Lossy
Delay relative to video                  : 4 ms
Stream size                              : 1.18 GiB (17%)
Title                                    : Original
Language                                 : English
Default                                  : No
Forced                                   : No

Text #1
ID                                       : 5
Format                                   : UTF-8
Codec ID                                 : S_TEXT/UTF8
Codec ID/Info                            : UTF-8 Plain Text
Duration                                 : 1 h 44 min
Bit rate                                 : 1 b/s
Count of elements                        : 27
Stream size                              : 1.45 KiB (0%)
Title                                    : Forced
Language                                 : Russian
Default                                  : Yes
Forced                                   : No

Text #2
ID                                       : 6
Format                                   : UTF-8
Codec ID                                 : S_TEXT/UTF8
Codec ID/Info                            : UTF-8 Plain Text
Duration                                 : 1 h 45 min
Bit rate                                 : 81 b/s
Count of elements                        : 1386
Stream size                              : 62.8 KiB (0%)
Title                                    : Full
Language                                 : Russian
Default                                  : No
Forced                                   : No

Text #3
ID                                       : 7
Format                                   : UTF-8
Codec ID                                 : S_TEXT/UTF8
Codec ID/Info                            : UTF-8 Plain Text
Duration                                 : 1 h 14 min
Bit rate                                 : 0 b/s
Count of elements                        : 8
Stream size                              : 365 Bytes (0%)
Title                                    : Forced
Language                                 : Ukrainian
Default                                  : No
Forced                                   : No

Text #4
ID                                       : 8
Format                                   : UTF-8
Codec ID                                 : S_TEXT/UTF8
Codec ID/Info                            : UTF-8 Plain Text
Duration                                 : 1 h 45 min
Bit rate                                 : 90 b/s
Count of elements                        : 1390
Stream size                              : 69.6 KiB (0%)
Title                                    : Full
Language                                 : Ukrainian
Default                                  : No
Forced                                   : No

Text #5
ID                                       : 9
Format                                   : UTF-8
Codec ID                                 : S_TEXT/UTF8
Codec ID/Info                            : UTF-8 Plain Text
Duration                                 : 1 h 43 min
Bit rate                                 : 59 b/s
Count of elements                        : 1587
Stream size                              : 45.0 KiB (0%)
Title                                    : Full
Language                                 : English
Default                                  : No
Forced                                   : No

Text #6
ID                                       : 10
Format                                   : UTF-8
Codec ID                                 : S_TEXT/UTF8
Codec ID/Info                            : UTF-8 Plain Text
Duration                                 : 1 h 44 min
Bit rate                                 : 67 b/s
Count of elements                        : 1752
Stream size                              : 51.3 KiB (0%)
Title                                    : SDH
Language                                 : English
Default                                  : No
Forced                                   : No

Text #7
ID                                       : 11
Format                                   : UTF-8
Codec ID                                 : S_TEXT/UTF8
Codec ID/Info                            : UTF-8 Plain Text
Duration                                 : 1 h 45 min
Bit rate                                 : 107 b/s
Count of elements                        : 2109
Stream size                              : 83.0 KiB (0%)
Title                                    : Commentary
Language                                 : English
Default                                  : No
Forced                                   : No

Menu
00:00:00.000                             : :Chapter 01
00:06:27.136                             : :Chapter 02
00:11:09.418                             : :Chapter 03
00:15:51.116                             : :Chapter 04
00:21:00.884                             : :Chapter 05
00:25:53.802                             : :Chapter 06
00:34:35.031                             : :Chapter 07
00:37:46.639                             : :Chapter 08
00:42:01.227                             : :Chapter 09
00:44:44.098                             : :Chapter 10
00:47:39.773                             : :Chapter 11
00:52:04.955                             : :Chapter 12
00:57:06.423                             : :Chapter 13
00:59:59.971                             : :Chapter 14
01:04:39.333                             : :Chapter 15
01:08:09.001                             : :Chapter 16
01:11:17.398                             : :Chapter 17
01:14:29.089                             : :Chapter 18
01:19:45.655                             : :Chapter 19
01:26:09.539                             : :Chapter 20
01:32:11.984                             : :Chapter 21
01:35:52.496                             : :Chapter 22
01:40:05.666                             : :Chapter 23
01:45:06.091                             : :Chapter 24



Скриншоты:
[+] Всего файлов в раздаче - 1:
Tolkien(2019).BDRip.1080p.HEVC.mkv7.02 GB

Показать еще раздачи по запросу толкин:
2019-08-11 U Толкин / Tolkien (2019) BDRip-AVC от New-Team | P | iTunes 2.08 GB ↑ 43 ↓ 10
2019-08-11 U Толкин / Tolkien (2019) BDRip 720p от селезень | iTunes 4.58 GB ↑ 80 ↓ 19
2019-08-10 U Толкин / Tolkien (2019) BDRip-AVC от New-Team | P | iTunes 1.47 GB ↑ 74 ↓ 24
2019-08-10 U Толкин / Tolkien (2019) BDRip 1080p от селезень | iTunes 13.68 GB ↑ 114 ↓ 100
2019-08-10 U Толкин / Tolkien (2019) BDRip от MegaPeer | iTunes 1.41 GB ↑ 44 ↓ 13
2019-08-07 U Толкин / Tolkien (2019) BDRip от MegaPeer | HDRezka Studio 1.46 GB ↑ 76 ↓ 28
2019-07-30 U Толкин / Tolkien (2019) WEB-DLRip-AVC от OlLanDGroup | P 1.55 GB ↑ 28 ↓ 20

Отзывы
Зарегистрируйтесь чтобы добавить комментарий.
Обратная связь
Copyleft ©