↑↓Torrent.by
Поиск
Логин: Регистрация
Пароль: Восстановить пароль
Загрузка...

Середина 90-х / Mid90s (2018) BDRip 1080p | P

Скачать seredina-90-h-mid90s-2018-bdrip-1080p-p.torrent
U Магнитная ссылка Размер: 6.78 GB Раздают: 87 Качают: 54 Добавлен: 2019-08-11 17:05:52
Середина 90-х / Mid90s (2018) BDRip 1080p | P

Название: Середина 90-х
Оригинальное название: Mid90s
Год выхода: 2018
Жанр: драма, комедия
Режиссер: Джона Хилл
В ролях: Санни Сулджик, Кэтрин Уотерстон, Лукас Хеджес, На-Кель Смит, Олан Пренэтт, Гио Галисия, Райдер МакЛаухлин, Алекса Демай, Фиг Камила Абнер, Лиана Перлич

О фильме:
Калифорния, середина 90-х: компакт-диски еще не вытеснили аудио-кассеты, скейт-бордисты еще не засветились на MTV, а малыша Стиви все еще держат за ребенка и мама, и старший брат. Все меняется, когда Стиви принимают во взрослую тусовку скейтеров-отщепенцев, и чтобы доказать свою крутость, он совершает одно смешное безумие за другим. Мальчуган сам не замечает, как в череде прогулок, хип-хоп посиделок и вечеринок развлечения перестают быть невинными, а его детство неминуемо катится по направлению к отрочеству, как по склону Беверли Хиллс.

Страна: США
Продолжительность: 01:25:22
Перевод: Профессиональное (многоголосый) Официальный

Файл
Качество: BDRip 1080p
Видео: MPEG-4 AVC, 9486 Кбит/с, 1440х1080
Звук: Русский (AC3, 2 ch, 384 Кбит/с), английский (DTS, 6 ch, 1509 Кбит/с)
Субтитры: Русские, английские


[+] MediaInfo
Общее
Уникальный идентификатор                 : 240140107286869001846207165565268477872 (0xB4A94D66A08615EF98B4B384679D47B0)
Полное имя                               : Seredina.90s.2018.BDRip.1080p.ELEKTRI4KA.UNIONGANG.mkv
Формат                                   : Matroska
Версия формата                           : Version 4
Размер файла                             : 6,78 Гбайт
Продолжительность                        : 1 ч. 25 м.
Общий поток                              : 11,4 Мбит/сек
Дата кодирования                         : UTC 2019-06-29 10:46:27
Программа кодирования                    : mkvmerge v8.3.0 ('Over the Horizon') 64bit
Библиотека кодирования                   : libebml v1.3.1 + libmatroska v1.4.2

Видео
Идентификатор                            : 1
Формат                                   : AVC
Формат/Информация                        : Advanced Video Codec
Профиль формата                          : High@L4.1
Настройки формата                        : CABAC / 5 Ref Frames
Параметр CABAC формата                   : Да
Параметр RefFrames формата               : 5 кадров
Идентификатор кодека                     : V_MPEG4/ISO/AVC
Продолжительность                        : 1 ч. 25 м.
Битрейт                                  : 9486 Кбит/сек
Ширина                                   : 1440 пикселей
Высота                                   : 1080 пикселей
Соотношение сторон                       : 4:3
Режим частоты кадров                     : Постоянный
Частота кадров                           : 23,976 (24000/1001) кадра/сек
Цветовое пространство                    : YUV
Субдискретизация насыщенности            : 4:2:0
Битовая глубина                          : 8 бит
Тип развёртки                            : Прогрессивная
Бит/(Пиксели*Кадры)                      : 0.254
Размер потока                            : 5,65 Гбайт (83%)
Библиотека кодирования                   : x264 core 155 r2901 7d0ff22
Настройки программы                      : cabac=1 / ref=5 / deblock=1:0:0 / analyse=0x3:0x113 / me=umh / subme=8 / psy=1 / psy_rd=1.00:0.00 / mixed_ref=1 / me_range=16 / chroma_me=1 / trellis=1 / 8x8dct=1 / cqm=0 / deadzone=21,11 / fast_pskip=1 / chroma_qp_offset=-2 / threads=24 / lookahead_threads=4 / sliced_threads=0 / nr=0 / decimate=1 / interlaced=0 / bluray_compat=0 / constrained_intra=0 / bframes=3 / b_pyramid=2 / b_adapt=1 / b_bias=0 / direct=3 / weightb=1 / open_gop=0 / weightp=2 / keyint=240 / keyint_min=24 / scenecut=40 / intra_refresh=0 / rc_lookahead=50 / rc=2pass / mbtree=1 / bitrate=9486 / ratetol=1.0 / qcomp=0.60 / qpmin=0 / qpmax=69 / qpstep=4 / cplxblur=20.0 / qblur=0.5 / ip_ratio=1.40 / aq=1:1.00
Язык                                     : English
Default                                  : Да
Forced                                   : Нет

Аудио #1
Идентификатор                            : 2
Формат                                   : AC-3
Формат/Информация                        : Audio Coding 3
Коммерческое название                    : Dolby Digital
Идентификатор кодека                     : A_AC3
Продолжительность                        : 1 ч. 25 м.
Вид битрейта                             : Постоянный
Битрейт                                  : 384 Кбит/сек
Каналы                                   : 2 канала
Channel layout                           : L R
Частота                                  : 48,0 КГц
Частота кадров                           : 31,250 кадров/сек (1536 SPF)
Битовая глубина                          : 16 бит
Метод сжатия                             : С потерями
Размер потока                            : 234 Мбайт (3%)
Заголовок                                : ELEKTRI4KA.UNIONGANG
Язык                                     : Russian
ServiceKind                              : Complete Main
Default                                  : Да
Forced                                   : Нет

Аудио #2
Идентификатор                            : 3
Формат                                   : DTS
Формат/Информация                        : Digital Theater Systems
Идентификатор кодека                     : A_DTS
Продолжительность                        : 1 ч. 25 м.
Вид битрейта                             : Постоянный
Битрейт                                  : 1509 Кбит/сек
Каналы                                   : 6 каналов
Channel layout                           : C L R Ls Rs LFE
Частота                                  : 48,0 КГц
Частота кадров                           : 93,750 кадра/сек (512 SPF)
Битовая глубина                          : 24 бит
Метод сжатия                             : С потерями
Размер потока                            : 921 Мбайт (13%)
Язык                                     : English
Default                                  : Нет
Forced                                   : Нет

Текст #1
Идентификатор                            : 4
Формат                                   : UTF-8
Идентификатор кодека                     : S_TEXT/UTF8
Идентификатор кодека/Информация          : UTF-8 Plain Text
Продолжительность                        : 1 ч. 19 м.
Битрейт                                  : 72 бит/сек
ElementCount                             : 855
Размер потока                            : 42,0 Кбайт (0%)
Язык                                     : Russian
Default                                  : Да
Forced                                   : Нет

Текст #2
Идентификатор                            : 5
Формат                                   : UTF-8
Идентификатор кодека                     : S_TEXT/UTF8
Идентификатор кодека/Информация          : UTF-8 Plain Text
Продолжительность                        : 1 ч. 18 м.
Битрейт                                  : 45 бит/сек
ElementCount                             : 844
Размер потока                            : 26,0 Кбайт (0%)
Заголовок                                : English regular
Язык                                     : English
Default                                  : Нет
Forced                                   : Нет

Текст #3
Идентификатор                            : 6
Формат                                   : UTF-8
Идентификатор кодека                     : S_TEXT/UTF8
Идентификатор кодека/Информация          : UTF-8 Plain Text
Продолжительность                        : 1 ч. 18 м.
Битрейт                                  : 54 бит/сек
ElementCount                             : 993
Размер потока                            : 31,4 Кбайт (0%)
Заголовок                                : English sdh
Язык                                     : English
Default                                  : Нет
Forced                                   : Нет

Меню
00:00:00.000                             : en:00:00:00.000
00:04:41.907                             : en:00:04:41.907
00:11:28.313                             : en:00:11:28.313
00:15:34.642                             : en:00:15:34.642
00:20:57.047                             : en:00:20:57.047
00:25:51.049                             : en:00:25:51.049
00:32:09.302                             : en:00:32:09.302
00:37:42.260                             : en:00:37:42.260
00:43:32.360                             : en:00:43:32.360
00:46:53.227                             : en:00:46:53.227
00:53:34.253                             : en:00:53:34.253
00:56:51.450                             : en:00:56:51.450
01:03:43.945                             : en:01:03:43.945
01:09:02.180                             : en:01:09:02.180
01:14:04.440                             : en:01:14:04.440
01:17:40.698                             : en:01:17:40.698



Скриншоты:
[+] Всего файлов в раздаче - 1:
Seredina.90s.2018.BDRip.1080p.ELEKTRI4KA.UNIONGANG.mkv6.78 GB

Похожие раздачи по запросу - середина:
2018-12-22 U Середина 90-х / Mid90s (2018) WEB-DL 1080p l BadBajo 3.21 GB ↑ 256 ↓ 37

Отзывы
Зарегистрируйтесь чтобы добавить комментарий.
Обратная связь
Copyleft ©