↑↓torrent.by
Поиск
Логин: Регистрация
Пароль: Восстановить пароль

Что, если...? / What If...? [01x01-05 из 09] (2021) WEB-DL 1080p | LostFilm

Скачать chto-esli-what-if-01x01-05-iz-09-2021-web-dl-1080p-lostfilm.torrent
U Магнитная ссылка Размер: 7.88 GB Раздают: 39 Качают: 72 Добавлен: 2021-09-11 21:14:29
Что, если...? / What If...? [01x01-05 из 09] (2021) WEB-DL 1080p | LostFilm

Название: Что, если...?
Оригинальное название: What If...?
Год выхода: 2021
Жанр: мультфильм, фэнтези, боевик, приключения
Режиссер: Брайан Эндрюс
В ролях: Джеффри Райт, Чэдвик Боузмэн, Хейли Этвелл, Доминик Купер, Шон Ганн, Джимон Хонсу, Сэмюэл Л. Джексон, Тоби Джонс, Нил МакДонаф, Майкл Рукер

О фильме: Что если сыворотку суперсолдата вместо Стива Роджерса получила бы Пегги Картер? А Звездным Лордом стал не принадлежащий к королевским кровям Т`Чалла? А инициатива «Мстители» где-то свернула не туда, и это привело бы к апокалипсису? Да ну, ерунда какая-то! Такова первая реакция, но зачем сдерживать свою фантазию, если это вполне себе канон. Как так может быть? С полноценным введением мультивселенной в сериале «Локи» вариаций одних и тех же событий оказалось масса. А для других временных линий именно эти сюжеты и являются классическими. Чтобы подготовить зрителей к тому, что теперь в киновселенной Marvel возможны любые сюрпризы, а правила игры могут быть переписаны подчистую, нам представляют сериал «Что если?..». Причем это первое анимационное шоу в КВМ, что дает ему некоторые преимущества — динамику развития историй, сочную графику в экшен-сценах, непривычный вид полюбившихся, но выбравших иной путь героев. История написана так, что вы будете получать удовольствие от узнавания некоторых сцен и альянсов. С другой стороны, здесь все по-новому — предыстории, мотивы, даже характеры Мстителей. Так что максимально широко откройте свой разум и приготовьтесь удивляться. Ведь этого эффекта студия Marvel умеет добиваться как ни одна другая.

Очередное могущественное существо по имени Наблюдатель (Джеффри Райт) напоминает нам, что время, пространство и материя — калейдоскоп разных вариаций одних и тех же событий. В нашей старой доброй КВМ мы привыкли к Стиву Роджерсу, как суперсолдату, переломившему ход войны, Т`Чалле (Чедвик Боузман), как гордому правителю Ваканды, а Локи — как изворотливой занозе, путающей все планы старшего брата. Но что если Стив (Джошуа Китон) остался застенчивым хиляком из Бруклина, а вместо суперсилы получил суперброню от Говарда Старка (Доминик Купер)? Пегги стала Капитаном Картер (Хейли Этвелл) и символом свободной Америки. Баки (Себастьян Стэн) не попал в плен «Гидры» и не лишился руки. А Ник Фьюри (Сэмюэл Л. Джексон) ошибся с новым составом Мстителей, и те довели мир до зомби-апокалипсиса. Звучит как феерическая выдумка, но это истина для одного из миллиарда миров. Познакомьтесь с новыми Мстителями — более мрачным Доктором Стрэнджем и совсем не таким серьезным Т`Чаллой, который теперь и не Черная Пантера, и не Звездный Лорд. Три Человека-паука, работающих вместе? Запросто! Мертвые и зловещие Капитан Америка и Железный человек? Имеются! Вот только как эти вариации повлияют на основной таймлайн и в чем на самом деле интерес таинственного Наблюдателя?

Страна:  США
Студия: Flying Bark Productions, Marvel Studios Inc.
Продолжительность: ~00:30:00 серия
Перевод: Профессиональный (многоголосый, закадровый) LostFilm

Файл
Качество: WEB-DL 1080p | What.If.S01.1080p.DSNP.WEBRip.DDP5.1.Atmos.x264-NOGRP/FLUX
Формат: Matroska
Видео: 1920x1080 at 24.000 fps, MPEG4-AVC, ~6300 kbps avg
Аудио#1:  Russian: 48 kHz, AC3, 2/0 (L,R) ch, ~384 kbps avg |Многоголосый закадровый, LostFilm|
Аудио#2:  English: 48 kHz, E-AC3, 3/2 (L,C,R,l,r) + LFE ch, ~768 kbps avg
Субтитры: Russian (Forced, Full), English (SDH) и другие

***Примечание: Без рекламы


[+] MediaInfo
General
Unique ID                      : 43070829678097980483852312119297713117 (0x206723DB04083616B9A2471E13AC23DD)
Complete name                  : What.If.S01E01.mkv
Format                         : Matroska
Format version                 : Version 4
File size                      : 1.62 GiB
Duration                       : 31 min 12 s
Overall bit rate mode          : Variable
Overall bit rate               : 7 453 kb/s
Movie name                     : What If...? S01E01 | mrrvg@rutor
Encoded date                   : UTC 2021-08-12 21:02:19
Writing application            : mkvmerge v52.0.0 ('Secret For The Mad') 64-bit
Writing library                : libebml v1.4.1 + libmatroska v1.6.2

Video
ID                             : 1
Format                         : AVC
Format/Info                    : Advanced Video Codec
Format profile                 : High@L4
Format settings                : CABAC / 4 Ref Frames
Format settings, CABAC         : Yes
Format settings, Reference fra : 4 frames
Codec ID                       : V_MPEG4/ISO/AVC
Duration                       : 31 min 12 s
Bit rate mode                  : Variable
Bit rate                       : 6 296 kb/s
Maximum bit rate               : 12.7 Mb/s
Width                          : 1 920 pixels
Height                         : 1 080 pixels
Display aspect ratio           : 16:9
Frame rate mode                : Constant
Frame rate                     : 24.000 FPS
Color space                    : YUV
Chroma subsampling             : 4:2:0
Bit depth                      : 8 bits
Scan type                      : Progressive
Bits/(Pixel*Frame)             : 0.127
Stream size                    : 1.37 GiB (84%)
Default                        : Yes
Forced                         : No
Color range                    : Limited
Color primaries                : BT.709
Transfer characteristics       : BT.709
Matrix coefficients            : BT.709

Audio #1
ID                             : 2
Format                         : AC-3
Format/Info                    : Audio Coding 3
Commercial name                : Dolby Digital
Codec ID                       : A_AC3
Duration                       : 31 min 12 s
Bit rate mode                  : Constant
Bit rate                       : 384 kb/s
Channel(s)                     : 2 channels
Channel layout                 : L R
Sampling rate                  : 48.0 kHz
Frame rate                     : 31.250 FPS (1536 SPF)
Compression mode               : Lossy
Stream size                    : 85.7 MiB (5%)
Language                       : Russian
Service kind                   : Complete Main
Default                        : Yes
Forced                         : No

Audio #2
ID                             : 3
Format                         : E-AC-3 JOC
Format/Info                    : Enhanced AC-3 with Joint Object Coding
Commercial name                : Dolby Digital Plus with Dolby Atmos
Codec ID                       : A_EAC3
Duration                       : 31 min 12 s
Bit rate mode                  : Constant
Bit rate                       : 768 kb/s
Channel(s)                     : 6 channels
Channel layout                 : L R C LFE Ls Rs
Sampling rate                  : 48.0 kHz
Frame rate                     : 31.250 FPS (1536 SPF)
Compression mode               : Lossy
Stream size                    : 171 MiB (10%)
Language                       : English
Service kind                   : Complete Main
Default                        : No
Forced                         : No
Complexity index               : 16
Number of dynamic objects      : 15
Bed channel count              : 1 channel
Bed channel configuration      : LFE

Text #1
ID                             : 4
Format                         : UTF-8
Codec ID                       : S_TEXT/UTF8
Codec ID/Info                  : UTF-8 Plain Text
Duration                       : 28 min 0 s
Bit rate                       : 1 b/s
Count of elements              : 12
Stream size                    : 395 Bytes (0%)
Title                          : Forced
Language                       : Russian
Default                        : Yes
Forced                         : No

Text #2
ID                             : 5
Format                         : UTF-8
Codec ID                       : S_TEXT/UTF8
Codec ID/Info                  : UTF-8 Plain Text
Duration                       : 28 min 24 s
Bit rate                       : 100 b/s
Count of elements              : 323
Stream size                    : 20.9 KiB (0%)
Title                          : Где тексты, Лебовски?
Language                       : Russian
Default                        : No
Forced                         : No

Text #3
ID                             : 6
Format                         : UTF-8
Codec ID                       : S_TEXT/UTF8
Codec ID/Info                  : UTF-8 Plain Text
Duration                       : 29 min 6 s
Bit rate                       : 101 b/s
Count of elements              : 325
Stream size                    : 21.5 KiB (0%)
Title                          : FOCS
Language                       : Russian
Default                        : No
Forced                         : No

Text #4
ID                             : 7
Format                         : UTF-8
Codec ID                       : S_TEXT/UTF8
Codec ID/Info                  : UTF-8 Plain Text
Duration                       : 28 min 24 s
Bit rate                       : 63 b/s
Count of elements              : 379
Stream size                    : 13.1 KiB (0%)
Title                          : SDH
Language                       : English
Default                        : No
Forced                         : No

Text #5
ID                             : 8
Format                         : UTF-8
Codec ID                       : S_TEXT/UTF8
Codec ID/Info                  : UTF-8 Plain Text
Duration                       : 30 min 32 s
Bit rate                       : 53 b/s
Count of elements              : 267
Stream size                    : 11.9 KiB (0%)
Language                       : Danish
Default                        : No
Forced                         : No

Text #6
ID                             : 9
Format                         : UTF-8
Codec ID                       : S_TEXT/UTF8
Codec ID/Info                  : UTF-8 Plain Text
Duration                       : 30 min 29 s
Bit rate                       : 53 b/s
Count of elements              : 355
Stream size                    : 12.0 KiB (0%)
Language                       : German
Default                        : No
Forced                         : No

Text #7
ID                             : 10
Format                         : UTF-8
Codec ID                       : S_TEXT/UTF8
Codec ID/Info                  : UTF-8 Plain Text
Duration                       : 30 min 32 s
Bit rate                       : 55 b/s
Count of elements              : 321
Stream size                    : 12.4 KiB (0%)
Title                          : European
Language                       : Spanish
Default                        : No
Forced                         : No

Text #8
ID                             : 11
Format                         : UTF-8
Codec ID                       : S_TEXT/UTF8
Codec ID/Info                  : UTF-8 Plain Text
Duration                       : 30 min 32 s
Bit rate                       : 54 b/s
Count of elements              : 322
Stream size                    : 12.1 KiB (0%)
Language                       : Spanish
Default                        : No
Forced                         : No

Text #9
ID                             : 12
Format                         : UTF-8
Codec ID                       : S_TEXT/UTF8
Codec ID/Info                  : UTF-8 Plain Text
Duration                       : 30 min 32 s
Bit rate                       : 51 b/s
Count of elements              : 321
Stream size                    : 11.6 KiB (0%)
Language                       : Finnish
Default                        : No
Forced                         : No

Text #10
ID                             : 13
Format                         : UTF-8
Codec ID                       : S_TEXT/UTF8
Codec ID/Info                  : UTF-8 Plain Text
Duration                       : 29 min 4 s
Bit rate                       : 52 b/s
Count of elements              : 349
Stream size                    : 11.3 KiB (0%)
Title                          : Canadian
Language                       : French
Default                        : No
Forced                         : No

Text #11
ID                             : 14
Format                         : UTF-8
Codec ID                       : S_TEXT/UTF8
Codec ID/Info                  : UTF-8 Plain Text
Duration                       : 30 min 29 s
Bit rate                       : 50 b/s
Count of elements              : 350
Stream size                    : 11.3 KiB (0%)
Language                       : French
Default                        : No
Forced                         : No

Text #12
ID                             : 15
Format                         : UTF-8
Codec ID                       : S_TEXT/UTF8
Codec ID/Info                  : UTF-8 Plain Text
Duration                       : 30 min 29 s
Bit rate                       : 52 b/s
Count of elements              : 320
Stream size                    : 11.7 KiB (0%)
Language                       : Italian
Default                        : No
Forced                         : No

Text #13
ID                             : 16
Format                         : UTF-8
Codec ID                       : S_TEXT/UTF8
Codec ID/Info                  : UTF-8 Plain Text
Duration                       : 30 min 32 s
Bit rate                       : 51 b/s
Count of elements              : 321
Stream size                    : 11.6 KiB (0%)
Language                       : Norwegian Bokmal
Default                        : No
Forced                         : No

Text #14
ID                             : 17
Format                         : UTF-8
Codec ID                       : S_TEXT/UTF8
Codec ID/Info                  : UTF-8 Plain Text
Duration                       : 30 min 29 s
Bit rate                       : 52 b/s
Count of elements              : 291
Stream size                    : 11.6 KiB (0%)
Language                       : Dutch
Default                        : No
Forced                         : No

Text #15
ID                             : 18
Format                         : UTF-8
Codec ID                       : S_TEXT/UTF8
Codec ID/Info                  : UTF-8 Plain Text
Duration                       : 30 min 32 s
Bit rate                       : 54 b/s
Count of elements              : 322
Stream size                    : 12.2 KiB (0%)
Language                       : Polish
Default                        : No
Forced                         : No

Text #16
ID                             : 19
Format                         : UTF-8
Codec ID                       : S_TEXT/UTF8
Codec ID/Info                  : UTF-8 Plain Text
Duration                       : 30 min 32 s
Bit rate                       : 56 b/s
Count of elements              : 321
Stream size                    : 12.7 KiB (0%)
Title                          : Brazilian
Language                       : Portuguese
Default                        : No
Forced                         : No

Text #17
ID                             : 20
Format                         : UTF-8
Codec ID                       : S_TEXT/UTF8
Codec ID/Info                  : UTF-8 Plain Text
Duration                       : 30 min 32 s
Bit rate                       : 55 b/s
Count of elements              : 322
Stream size                    : 12.5 KiB (0%)
Language                       : Portuguese
Default                        : No
Forced                         : No

Text #18
ID                             : 21
Format                         : UTF-8
Codec ID                       : S_TEXT/UTF8
Codec ID/Info                  : UTF-8 Plain Text
Duration                       : 30 min 32 s
Bit rate                       : 46 b/s
Count of elements              : 321
Stream size                    : 10.3 KiB (0%)
Language                       : Swedish
Default                        : No
Forced                         : No

Menu
00:29:58.000                   : Credits



[+] Скрытый текст
Звездный лорд - негр, как то не так напрягает, как эта феминистическая хрень, которая в наше время лезет из каждого второго фильма.



[+] Не выбирай один мир. Попробуй все
Когда в финале сериала «Локи» поклонники вселенной Marvel выяснили, что предыдущие разборки Мстителей с Таносом были лишь разминкой, а главное масштабное событие (война в мультивселенной) может ждать впереди, они начали строить разные теории. Самые проницательные, конечно, сразу догадались, что введение альтернативных временных линий полностью развязывает руки авторам КВМ. Только представьте — можно собрать команду Мстителей-злодеев, поменять героев суперсилами, наделить их другим происхождением, столкнуть лбами, вернуть выбывших актеров и воскресить погибших персонажей, а все не вписывающееся в канон арки окрестить лишь одним из вариантов событий в одном из миллиарда миров. Впрочем, с таким подходом само понятие канона рушится — все теперь становится оным, ведь это в нашей с вами старой доброй вселенной Marvel Стив Роджерс получил сыворотку суперсолдата, а Тор поднял молот. В других же символом Америки является Пегги Картер, Т`Чалла летит в космос, а Доктор Стрэндж является чуть ли не главным злодеем…

Все это стало возможным благодаря «Локи», но именно в новом проекте — анимационном сериале «Что если?..», нам впервые покажут альтернативные сюжеты первых фаз вселенной Marvel во всей красе. Шоу опирается на одноименные комиксы Роя Томаса, выходившие в 70-х. Студия дала ему такой карт-бланш, что у него Человек-паук состоял в рядах Фантастической четверки, Кэп совершал свои геройства в период Гражданской войны, а Сорвиголова — в феодальной Японии, силами Тора обладала Джейн Фостер и называла себя Тордис. Были даже совершенно нелепые экспериментальные новеллы вроде «Что если Фантастическая четверка состояла бы из бананов?». Как бы то ни было, уже тогда Томас отказывался считать свои графические романы буйством фантазии и настаивал на том, что все эти сюжеты — альтернативные, но такие же правомерные, как и основные.

Читателям серия очень зашла. Главным образом потому, что всем интересно увидеть привычных персонажей в новом свете, посмотреть, как изменились бы их решения под гнетом новых обстоятельств, и оценить другие альянсы. К тому же часто герои в «Что если?..» становились злодеями, сайдкики выходили на передний план и получали чуточку больше признания, а некоторые из них даже избегали смерти. Аналогичный подход решил применить и крестный отец КВМ Кевин Файги. Однако почти сразу продюсерами проекта было решено не экранизировать комиксы 70-х, а сделать сериал отображением, как в кривом зеркале, показанных в кино событий. В «Что если?..» каждый увиденный нами сюжет стартует со знакомой точки, а потом одно маленькое решение полностью меняет ход целой арки.

Помимо того, что сериал поможет зрителям привыкнуть к идее мультивселенной с ее многообразием возможностей, эта любопытная концепция еще и позволит нам лучше понять любимых Мстителей. И если вам кажется, что вы и без того знаете Тони Старка и Стива Роджерса как облупленных, вы глубоко заблуждаетесь. «Мы поняли: наш проект — лучшая возможность очистить героев ото всей шелухи, забрать у Стива щит, а у Т`Чаллы — трон Ваканды, пересобрать их заново и понять, что же делает их теми людьми, которые полюбились миллионам фанатов», — говорит режиссер «Что если?..» Брайан Эндрюс.

Кроме того, «Что если?..» предоставляет актерам, вернувшимся к озвучанию своих ролей, сыграть героев немного по-другому и не отходить при этом от канона. Например, Чедвик Боузман первым подписался на участие, потому что был в восторге от того, что его вечно серьезный и справедливый Т`Чалла стал больше шутить и дурачиться и приобрел более светлые нотки, как только сложил с плеч миссию Черной Пантеры. Многие критики и зрители уже отметили, что в этой последней роли Чедвика в КВМ он выложился на полную, сыграв и не Пантеру, и не Звездного Лорда, а какого-то третьего, совершенно нового, но живого и обаятельного персонажа. «Что если?..» бросил вызов и автору А.С. Бредли («Стрела»), ведь было бы глупо пересказывать известную историю с другими интонациями. Поэтому, например, в первой серии много остроумных отсылок к основному таймлайну — несостоявшееся свидание Стива и Пегги, спасение Баки, шутки по поводу оторванной руки и Капитан Америка в броне от Говарда Старка. Звучит как лучший на свете фансервис.

Отдельного упоминания заслуживает выбранный стиль графики и анимации, чуть не ставший предметом раздора фанатов Marvel на просторах Сети. Выбранный художниками стиль называется сел-шейдинг и чаще всего применяется в компьютерной графике. Из-за него были обескуражены зрители Disney+, избалованные более детальными и красочными «Бракованной партией» и «Монстрами за работой». И все же именно сел-шейдинг с его четкими контурами, резкими переходами светотени и матовостью больше всего подходит для одушевления комиксов. Именно так смотрятся некоторые моменты, особенно экшен-сцены, в «Что если?..». Авторы как раз добивались подобного эффекта, не желая огорошить аудиторию переносом героев из большого кино на малые экраны, к тому же сразу в анимацию. Эстетика комиксов и двумерная картинка помогли и относительно недорогому и быстрому производственному процессу. Что будет только на руку зрителям, когда они увидят все запланированные девять серий и захотят добавки в виде еще девяти.

Именно столько эпизодов заявлено во втором сезоне «Что если?..», который уже точно состоится, — сериал получил продление еще до премьеры. Неудивительно, ведь эти короткие, созданные, казалось бы, для чистого фана и на первый взгляд не связанные между собой серии значительно продвинут вселенную вперед. Авторы мультсериала уже заявили, что его события являются каноном Marvel, а значит, повлияют на сюжет будущих фильмов, например, триквела «Человека-паука». Внимательно следите за тем, как герои меняются суперсилами, а то и целыми судьбами, и слушайте рассказ пока отстраненного Наблюдателя — если отталкиваться от его комиксового прошлого, он еще вмешается в текущие дела.

В остальном же «Что если?..» — это потенциально самый веселый, дерзкий и балующий сюрпризами сериал Четвертой фазы. Что планировщики контента Marvel умеют делать хорошо, так это расставлять акценты — давать публике передышку перед грядущим масштабным эпиком. Впереди у нас, судя по всему, глобальная война таймлайнов и вариантов Канга за главенство, так что сейчас — самое время расслабиться и просто получать удовольствие от творящегося на экране безумия.

lostfilm



[+] Анимация - лучший друг супергероя
Marvel готовит новые анимационные сериалы

Новое шоу Marvel «Что если?..» ознаменовало собой важную веху в КВМ: как и следует из названия, мультсериал выжмет максимум из концепции мультивселенной, которая получила свое официальное подтверждение в финале «Локи». Кроме того, «Что если?..» — это первый и, как стало известно, далеко не последний оригинальный анимационный проект киновселенной.

Брэд Виндербаум («Студия Marvel: Общий сбор», «Черная вдова») заявил, что у студии на этот счет большие планы. По словам продюсера, руководители Marvel решили сосредоточиться именно на многосерийных историях и запустили в разработку многочисленные анимационные сериалы для Disney+, которые находятся на разных этапах производства. Дальше всего продвинулся процесс создания второго сезона «Что если?..», хотя первая глава шоу только на днях была добавлена в библиотеку стримингового сервиса. Вовсю кипит работа и над короткометражными эпизодами о малыше Груте, визуальная часть которых будет создана с использованием фотореалистичных CG-технологий. Кажется, у маленького зеленого компаньона Мандалорца может появиться серьезный конкурент…

На протяжении десятилетий герои комиксов Marvel оживали на экранах в анимационном формате, однако с конца нулевых авторы КВМ сосредоточились на создании игровых фильмов. Почему боссы студии решились вновь зайти на территорию анимации, понять нетрудно. Этот формат предоставляет огромную творческую свободу, без которой не обойтись при работе над такими амбициозными проектами, как мультсериал «Что если?..», который продемонстрирует альтернативные версии знакомых событий из киновселенной. «Без анимации мы были бы просто не в состоянии рассказать подобные истории», — объяснил Виндербаум.

Публика вряд ли увидит новые анимационные сериалы Marvel раньше 2023 года: такое длительное ожидание обусловлено сложностью процесса производства. Однако Виндербаум уверил фанатов в том, что оригинальные сюжеты предстоящих шоу будут основаны как на историях из комиксов, ранее не рассказанных на экранах, так и на персонажах, которые уже знакомы зрителям по игровым проектам. Можно предположить, что имеются в виду не только полнометражные блокбастеры, но и сериалы, которые в последнее время завоевывают все больше места в одной из самых популярных франшиз современности.

Виндербаум добавил: «Наши амбиции в сфере анимации будут реализованы исключительно под крылом студии Marvel: спродюсированы Кевином Файги и созданы теми же людьми, что ежегодно радуют вас новинками из КВМ. Кроме того, все они будут связаны, но как именно, покажет только время».

Источник: Variety/lostfilm



Скриншоты:
[+] Всего файлов в раздаче - 5:
What.If.S01E01.mkv1.62 GB
What.If.S01E02.mkv1.65 GB
What.If.S01E03.mkv1.40 GB
What.If.S01E04.mkv1.65 GB
What.If.S01E05.mkv1.56 GB

Показать еще раздачи по запросу если:
2021-09-19 U Что, если...? / What If...? [01x01-06 из 09] (2021) WEB-DLRip | LostFilm 2.42 GB ↑ 15 ↓ 21
2021-09-18 U Что, если...? / What If...? [01x01-06 из 09] (2021) WEB-DL 1080p | LostFilm 9.44 GB ↑ 32 ↓ 70
2021-09-16 U Что, если...? / What If...? [01x01-06 из 09] (2021) WEB-DL 1080p | HDrezka Studio 9.52 GB ↑ 31 ↓ 135
2021-09-16 U Что, если...? / What If...? [01x01-06 из 09] (2021) WEBRip от Kerob | L 2.35 GB ↑ 43 ↓ 54
2021-09-16 U Что, если...? / What If...? [01x01-06 из 09] (2021) WEBRip 1080p от Kerob | L 8.25 GB ↑ 45 ↓ 92
2021-09-16 U Что, если...? / What If...? [01x01-06 из 09] (2021) WEBRip 720p от Kerob | L 4.92 GB ↑ 42 ↓ 85
2021-09-16 U Что, если...? / What If...? [01х01-06 из 09] (2021) WEBRip 1080p | VHSник 9.42 GB ↑ 25 ↓ 19

Отзывы
Зарегистрируйтесь чтобы добавить комментарий.
Загрузите программу
  byTorrent
Обратная связь
Copyleft ©