↑↓Torrent.by
Поиск
Логин: Регистрация
Пароль: Восстановить пароль
Загрузка...

Дамбо / Dumbo (2019) HDRip от GeneralFilm | Лицензия

Скачать dambo-dumbo-2019-hdrip-ot-generalfilm-licenziya.torrent
U Магнитная ссылка Размер: 746.12 MB Раздают: 51 Качают: 1 Добавлен: 2019-08-11 17:06:32
Дамбо / Dumbo (2019) HDRip от GeneralFilm | Лицензия

Год выпуска: 2019
Жанр:  Фэнтези, семейный
Выпущено: США, Walt Disney Pictures, Tim Burton Productions, Infinite Detective
Режиссер: Тим Бёртон
В ролях: Колин Фаррелл, Майкл Китон, Дэнни ДеВито, Ева Грин, Алан Аркин, Нико Паркер, Финли Хоббинс, Рошан Сет, Ларс Айдингер, Деобиа Опарей

О фильме: Цирковой импресарио Макс Медичи назначает бывшую звезду цирка Холта Фэрриера и его детей Милли и Джо опекунами новорожденного слонёнка, чьи невероятно большие уши сразу становятся предметом для постоянных шуток и насмешек коллег Холта по цеху. Внезапно узнав, что Дамбо умеет летать, владелец цирка решает нажиться на необычных способностях слонёнка. К делу подключается энергичный предприниматель В. А. Вэндевер, который решает сделать из малыша Дамбо главную звезду своего нового грандиозного развлекательного предприятия «Сказочная страна».

Качество: HDRip
Видео: XviD build 73, 624x336 (1.85:1), 23.976 fps, 795 Kbps (0.158 bit/pixel)
Аудио: 48.0 kHz, MP3, 2 ch, 128 kbps
Продолжительность: 01:51:56
Перевод: Дублированный
Cубтитры: Русские форсированные на надписи (вшитые)

Релиз:


[+] MediaInfo
General
Complete name               : D:RazdachiDumbo.2019.HDRip.Lic.745Mb.GeneralFilm.avi
Format                      : AVI
Format/Info                 : Audio Video Interleave
File size                   : 746 MiB
Duration                    : 1 h 51 min
Overall bit rate            : 932 kb/s
Writing application         : VirtualDubMod 1.5.10.3 | www.virtualdub-fr.org || (build 2550/release)
Writing library             : VirtualDubMod build 2550/release

Video
ID                          : 0
Format                      : MPEG-4 Visual
Format profile              : Advanced Simple@L5
Format settings             : BVOP1 / Custom Matrix
Format settings, BVOP       : 1
Format settings, QPel       : No
Format settings, GMC        : No warppoints
Format settings, Matrix     : Custom
Codec ID                    : XVID
Codec ID/Hint               : XviD
Duration                    : 1 h 51 min
Bit rate                    : 795 kb/s
Width                       : 624 pixels
Height                      : 336 pixels
Display aspect ratio        : 1.85:1
Frame rate                  : 23.976 (24000/1001) FPS
Color space                 : YUV
Chroma subsampling          : 4:2:0
Bit depth                   : 8 bits
Scan type                   : Progressive
Compression mode            : Lossy
Bits/(Pixel*Frame)          : 0.158
Stream size                 : 636 MiB (85%)
Writing library             : XviD 73

Audio
ID                          : 1
Format                      : MPEG Audio
Format version              : Version 1
Format profile              : Layer 3
Codec ID                    : 55
Codec ID/Hint               : MP3
Duration                    : 1 h 51 min
Bit rate mode               : Constant
Bit rate                    : 128 kb/s
Channel(s)                  : 2 channels
Sampling rate               : 48.0 kHz
Frame rate                  : 41.667 FPS (1152 SPF)
Compression mode            : Lossy
Stream size                 : 102 MiB (14%)
Alignment                   : Aligned on interleaves
Interleave, duration        : 42  ms (1.00 video frame)
Interleave, preload duratio : 504  ms
Writing library             : LAME3.99r
Encoding settings           : -m s -V 4 -q 2 -lowpass 17 -b 128



Скриншоты:
[+] Всего файлов в раздаче - 1:
Dumbo.2019.HDRip.Lic.745Mb.GeneralFilm.avi746.12 MB

Показать еще раздачи по запросу дамбо:
2019-08-09 U Дамбо / Dumbo (2019) BDRip 1080p от селезень | Лицензия 9.21 GB ↑ 106 ↓ 45
2019-08-09 U Дамбо / Dumbo (2019) BDRip от MegaPeer | Лицензия 1.47 GB ↑ 36 ↓ 16
2019-07-03 U Дамбо / Dumbo (2019) BDRip-HEVC 1080p от HANNIBAL | iTunes 11.30 GB ↑ 48 ↓ 24
2019-07-01 U Дамбо / Dumbo (2019) BDRip 720p от Scarabey | iTunes 6.16 GB ↑ 159 ↓ 60
2019-06-30 U Дамбо / Dumbo (2019) BDRip 720p от k.e.n & MegaPeer | D | iTunes 4.32 GB ↑ 334 ↓ 44
2019-06-29 U Дамбо / Dumbo (2019) BDRip от Twister & ExKinoRay | iTunes 1.41 GB ↑ 110 ↓ 20
2019-06-29 U Дамбо / Dumbo (2019) HDRip от Scarabey | iTunes 744.86 MB ↑ 134 ↓ 19

Отзывы
Зарегистрируйтесь чтобы добавить комментарий.
Обратная связь
Copyleft ©