↑↓Torrent.by
Поиск
Логин: Регистрация
Пароль: Восстановить пароль
Загрузка...

Курорт для ныряльщиков на Красном море / The Red Sea Diving Resort (2019) WEB-DL 1080p | HDRezka Studio

Скачать kurort-dlya-nyryalschikov-na-krasnom-more-the-red-sea-diving-resort-2019-web-dl-1080p-hdrezka-studio.torrent
U Магнитная ссылка Размер: 4.93 GB Раздают: 141 Качают: 71 Добавлен: 2019-08-12 07:11:55
Курорт для ныряльщиков на Красном море / The Red Sea Diving Resort (2019) WEB-DL 1080p | HDRezka Studio

Название: Курорт для ныряльщиков на Красном море
Оригинальное название: The Red Sea Diving Resort / Operation Brothers
Год выпуска: 2019
Жанр:  Триллер, драма, история
Режиссер: Гидеон Рафф
В ролях: Крис Эванс, Хейли Беннетт, Майкл Кеннет Уильямс, Микил Хаусмен, Бен Кингсли, Алона Тал, Алессандро Нивола, Грег Киннер, Крис Чок, Алекс Хэсселл, Марк Иванир, Дэнни Кеог, Патрик Листер, Ануар Х. Шмайне, Лоуренс Джофф, Вере Тиндале, Энтони Осейеми

О фильме: В начале восьмидесятых годов прошлого века гражданская война и продолжительная засуха, ставшая причиной массовой гибели населения от голода, превратили Эфиопию в место, мало пригодное для жизни. Тысячи эфиопских евреев были вынуждены в спешке покинуть страну и направиться в соседний Судан, преодолевая огромные расстояния пешком и сталкиваясь со множеством опасностей. В это время израильский "Моссад" начинает операцию по спасению беженцев. Молодой спецагент Ари Кидрона вместе со своей командой основывает тайный порт на побережье Красного моря. Наладив воздушные и морские мосты, он организует массовую переправку беженцев.

Выпущено: США, BRON Studios, EMJAG Productions, Shaken Not Stirred
Продолжительность: 02:10:10
Перевод: Профессиональный (многоголосый закадровый) HDRezka Studio

Файл
Формат: MKV
Качество: WEB-DL 1080p
Видео: MPEG4 AVC Video, H264, 16:9, 1920x1080, 24 fps, 4601 Kbps
Аудио#1: Russian (AAC, 2 ch, 180 kbps, 16 bits, 48.0 KHz) - HDRezka Studio
Аудио#2: English (E-AC3, 6 ch, 640 kbps, 16 bits, 48.0 KHz) - Оригинал
Субтитры: Русские, английские, испанские, французские, немецкие и др.


[+] Инфо-файл
General
Unique ID                                : 14121938753260275414528958130992510572 (0xA9FC95636C62CB05CAC2A1B6074F66C)
Complete name                            : G:The.Red.Sea.Diving.Resort.2019.WEB-DL.1080p.mkv
Format                                   : Matroska
Format version                           : Version 4 / Version 2
File size                                : 4.93 GiB
Duration                                 : 2 h 10 min
Overall bit rate mode                    : Variable
Overall bit rate                         : 5 423 kb/s
Encoded date                             : UTC 2019-08-10 20:37:03
Writing application                      : mkvmerge v20.0.0 ('I Am The Sun') 64-bit
Writing library                          : libebml v1.3.5 + libmatroska v1.4.8

Video
ID                                       : 1
Format                                   : AVC
Format/Info                              : Advanced Video Codec
Format profile                           : High@L4
Format settings                          : CABAC / 4 Ref Frames
Format settings, CABAC                   : Yes
Format settings, RefFrames               : 4 frames
Codec ID                                 : V_MPEG4/ISO/AVC
Duration                                 : 2 h 10 min
Bit rate mode                            : Variable
Bit rate                                 : 4 601 kb/s
Maximum bit rate                         : 20.0 Mb/s
Width                                    : 1 920 pixels
Height                                   : 1 080 pixels
Display aspect ratio                     : 16:9
Frame rate mode                          : Constant
Frame rate                               : 24.000 FPS
Color space                              : YUV
Chroma subsampling                       : 4:2:0
Bit depth                                : 8 bits
Scan type                                : Progressive
Bits/(Pixel*Frame)                       : 0.092
Stream size                              : 4.18 GiB (85%)
Writing library                          : x264 core 148 r2715 7e75228
Encoding settings                        : cabac=1 / ref=4 / deblock=1:0:0 / analyse=0x3:0x111 / me=umh / subme=10 / psy=1 / psy_rd=1.00:0.00 / mixed_ref=1 / me_range=120 / chroma_me=1 / trellis=2 / 8x8dct=1 / cqm=0 / deadzone=21,11 / fast_pskip=1 / chroma_qp_offset=-2 / threads=6 / lookahead_threads=1 / sliced_threads=0 / nr=0 / decimate=1 / interlaced=0 / bluray_compat=0 / stitchable=1 / constrained_intra=0 / bframes=16 / b_pyramid=2 / b_adapt=2 / b_bias=0 / direct=3 / weightb=1 / open_gop=0 / weightp=2 / keyint=240 / keyint_min=121 / scenecut=0 / intra_refresh=0 / rc_lookahead=240 / rc=crf / mbtree=1 / crf=16.0 / qcomp=0.50 / qpmin=6 / qpmax=51 / qpstep=4 / vbv_maxrate=20000 / vbv_bufsize=25000 / crf_max=0.0 / nal_hrd=vbr / filler=0 / ip_ratio=1.40 / aq=1:0.80
Language                                 : English
Default                                  : Yes
Forced                                   : No

Audio #1
ID                                       : 2
Format                                   : AAC
Format/Info                              : Advanced Audio Codec
Format profile                           : LC
Codec ID                                 : A_AAC-2
Duration                                 : 2 h 10 min
Bit rate                                 : 178 kb/s
Channel(s)                               : 2 channels
Channel positions                        : Front: L R
Sampling rate                            : 48.0 kHz
Frame rate                               : 46.875 FPS (1024 SPF)
Compression mode                         : Lossy
Stream size                              : 165 MiB (3%)
Title                                    : MVO HDRezka Studio
Language                                 : Russian
Default                                  : Yes
Forced                                   : No

Audio #2
ID                                       : 3
Format                                   : E-AC-3
Format/Info                              : Enhanced Audio Coding 3
Codec ID                                 : A_EAC3
Duration                                 : 2 h 10 min
Bit rate mode                            : Constant
Bit rate                                 : 640 kb/s
Channel(s)                               : 6 channels
Channel positions                        : Front: L C R, Side: L R, LFE
Sampling rate                            : 48.0 kHz
Frame rate                               : 187.500 FPS (256 SPF)
Compression mode                         : Lossy
Stream size                              : 596 MiB (12%)
Title                                    : English [Original]
Language                                 : English
Service kind                             : Complete Main
Default                                  : No
Forced                                   : No

Text #1
ID                                       : 4
Format                                   : UTF-8
Codec ID                                 : S_TEXT/UTF8
Codec ID/Info                            : UTF-8 Plain Text
Duration                                 : 2 h 8 min
Bit rate                                 : 55 b/s
Count of elements                        : 1095
Stream size                              : 52.0 KiB (0%)
Title                                    : Russian
Language                                 : Russian
Default                                  : No
Forced                                   : No

Text #2
ID                                       : 5
Format                                   : UTF-8
Codec ID                                 : S_TEXT/UTF8
Codec ID/Info                            : UTF-8 Plain Text
Duration                                 : 1 h 52 min
Bit rate                                 : 2 b/s
Count of elements                        : 68
Stream size                              : 1.81 KiB (0%)
Title                                    : forced
Language                                 : English
Default                                  : No
Forced                                   : No

Text #3
ID                                       : 6
Format                                   : UTF-8
Codec ID                                 : S_TEXT/UTF8
Codec ID/Info                            : UTF-8 Plain Text
Duration                                 : 2 h 0 min
Bit rate                                 : 45 b/s
Count of elements                        : 1458
Stream size                              : 40.1 KiB (0%)
Title                                    : English
Language                                 : English
Default                                  : No
Forced                                   : No

Text #4
ID                                       : 7
Format                                   : UTF-8
Codec ID                                 : S_TEXT/UTF8
Codec ID/Info                            : UTF-8 Plain Text
Duration                                 : 2 h 8 min
Bit rate                                 : 31 b/s
Count of elements                        : 1101
Stream size                              : 29.5 KiB (0%)
Title                                    : German
Language                                 : German
Default                                  : No
Forced                                   : No

Text #5
ID                                       : 8
Format                                   : UTF-8
Codec ID                                 : S_TEXT/UTF8
Codec ID/Info                            : UTF-8 Plain Text
Duration                                 : 2 h 8 min
Bit rate                                 : 31 b/s
Count of elements                        : 1270
Stream size                              : 29.8 KiB (0%)
Title                                    : French
Language                                 : French
Default                                  : No
Forced                                   : No

Text #6
ID                                       : 9
Format                                   : UTF-8
Codec ID                                 : S_TEXT/UTF8
Codec ID/Info                            : UTF-8 Plain Text
Duration                                 : 2 h 8 min
Bit rate                                 : 33 b/s
Count of elements                        : 1250
Stream size                              : 31.7 KiB (0%)
Title                                    : European Spanish
Language                                 : Spanish
Default                                  : No
Forced                                   : No

Text #7
ID                                       : 10
Format                                   : UTF-8
Codec ID                                 : S_TEXT/UTF8
Codec ID/Info                            : UTF-8 Plain Text
Duration                                 : 2 h 8 min
Bit rate                                 : 35 b/s
Count of elements                        : 1202
Stream size                              : 33.5 KiB (0%)
Title                                    : Spanish
Language                                 : Spanish
Default                                  : No
Forced                                   : No

Text #8
ID                                       : 11
Format                                   : UTF-8
Codec ID                                 : S_TEXT/UTF8
Codec ID/Info                            : UTF-8 Plain Text
Duration                                 : 2 h 8 min
Bit rate                                 : 62 b/s
Count of elements                        : 1269
Stream size                              : 58.5 KiB (0%)
Title                                    : Arabic
Language                                 : Arabic
Default                                  : No
Forced                                   : No

Text #9
ID                                       : 12
Format                                   : UTF-8
Codec ID                                 : S_TEXT/UTF8
Codec ID/Info                            : UTF-8 Plain Text
Duration                                 : 2 h 8 min
Bit rate                                 : 31 b/s
Count of elements                        : 1081
Stream size                              : 30.0 KiB (0%)
Title                                    : Finnish
Language                                 : Finnish
Default                                  : No
Forced                                   : No

Text #10
ID                                       : 13
Format                                   : UTF-8
Codec ID                                 : S_TEXT/UTF8
Codec ID/Info                            : UTF-8 Plain Text
Duration                                 : 2 h 8 min
Bit rate                                 : 33 b/s
Count of elements                        : 1194
Stream size                              : 31.1 KiB (0%)
Title                                    : Czech
Language                                 : Czech
Default                                  : No
Forced                                   : No

Text #11
ID                                       : 14
Format                                   : UTF-8
Codec ID                                 : S_TEXT/UTF8
Codec ID/Info                            : UTF-8 Plain Text
Duration                                 : 2 h 8 min
Bit rate                                 : 30 b/s
Count of elements                        : 1048
Stream size                              : 28.9 KiB (0%)
Title                                    : Danish
Language                                 : Danish
Default                                  : No
Forced                                   : No

Text #12
ID                                       : 15
Format                                   : UTF-8
Codec ID                                 : S_TEXT/UTF8
Codec ID/Info                            : UTF-8 Plain Text
Duration                                 : 2 h 8 min
Bit rate                                 : 56 b/s
Count of elements                        : 1117
Stream size                              : 53.3 KiB (0%)
Title                                    : Greek
Language                                 : Greek
Default                                  : No
Forced                                   : No

Text #13
ID                                       : 16
Format                                   : UTF-8
Codec ID                                 : S_TEXT/UTF8
Codec ID/Info                            : UTF-8 Plain Text
Duration                                 : 2 h 3 min
Bit rate                                 : 55 b/s
Count of elements                        : 1243
Stream size                              : 50.7 KiB (0%)
Title                                    : Hebrew
Language                                 : Hebrew
Default                                  : No
Forced                                   : No

Text #14
ID                                       : 17
Format                                   : UTF-8
Codec ID                                 : S_TEXT/UTF8
Codec ID/Info                            : UTF-8 Plain Text
Duration                                 : 2 h 8 min
Bit rate                                 : 97 b/s
Count of elements                        : 1278
Stream size                              : 91.8 KiB (0%)
Title                                    : Hindi
Language                                 : Hindi
Default                                  : No
Forced                                   : No

Text #15
ID                                       : 18
Format                                   : UTF-8
Codec ID                                 : S_TEXT/UTF8
Codec ID/Info                            : UTF-8 Plain Text
Duration                                 : 2 h 8 min
Bit rate                                 : 33 b/s
Count of elements                        : 1263
Stream size                              : 31.9 KiB (0%)
Title                                    : Hungarian
Language                                 : Hungarian
Default                                  : No
Forced                                   : No

Text #16
ID                                       : 19
Format                                   : UTF-8
Codec ID                                 : S_TEXT/UTF8
Codec ID/Info                            : UTF-8 Plain Text
Duration                                 : 2 h 8 min
Bit rate                                 : 37 b/s
Count of elements                        : 1274
Stream size                              : 35.6 KiB (0%)
Title                                    : Indonesian
Language                                 : Indonesian
Default                                  : No
Forced                                   : No

Text #17
ID                                       : 20
Format                                   : UTF-8
Codec ID                                 : S_TEXT/UTF8
Codec ID/Info                            : UTF-8 Plain Text
Duration                                 : 2 h 8 min
Bit rate                                 : 35 b/s
Count of elements                        : 1223
Stream size                              : 33.0 KiB (0%)
Title                                    : Italian
Language                                 : Italian
Default                                  : No
Forced                                   : No

Text #18
ID                                       : 21
Format                                   : UTF-8
Codec ID                                 : S_TEXT/UTF8
Codec ID/Info                            : UTF-8 Plain Text
Duration                                 : 2 h 8 min
Bit rate                                 : 32 b/s
Count of elements                        : 1094
Stream size                              : 30.2 KiB (0%)
Title                                    : Japanese
Language                                 : Japanese
Default                                  : No
Forced                                   : No

Text #19
ID                                       : 22
Format                                   : UTF-8
Codec ID                                 : S_TEXT/UTF8
Codec ID/Info                            : UTF-8 Plain Text
Duration                                 : 2 h 8 min
Bit rate                                 : 42 b/s
Count of elements                        : 1277
Stream size                              : 39.6 KiB (0%)
Title                                    : Korean
Language                                 : Korean
Default                                  : No
Forced                                   : No

Text #20
ID                                       : 23
Format                                   : UTF-8
Codec ID                                 : S_TEXT/UTF8
Codec ID/Info                            : UTF-8 Plain Text
Duration                                 : 2 h 8 min
Bit rate                                 : 27 b/s
Count of elements                        : 1212
Stream size                              : 26.3 KiB (0%)
Title                                    : Norwegian
Language                                 : Norwegian Bokmal
Default                                  : No
Forced                                   : No

Text #21
ID                                       : 24
Format                                   : UTF-8
Codec ID                                 : S_TEXT/UTF8
Codec ID/Info                            : UTF-8 Plain Text
Duration                                 : 2 h 8 min
Bit rate                                 : 32 b/s
Count of elements                        : 1114
Stream size                              : 30.4 KiB (0%)
Title                                    : Dutch
Language                                 : Dutch
Default                                  : No
Forced                                   : No

Text #22
ID                                       : 25
Format                                   : UTF-8
Codec ID                                 : S_TEXT/UTF8
Codec ID/Info                            : UTF-8 Plain Text
Duration                                 : 2 h 8 min
Bit rate                                 : 29 b/s
Count of elements                        : 1237
Stream size                              : 27.9 KiB (0%)
Title                                    : Polish
Language                                 : Polish
Default                                  : No
Forced                                   : No

Text #23
ID                                       : 26
Format                                   : UTF-8
Codec ID                                 : S_TEXT/UTF8
Codec ID/Info                            : UTF-8 Plain Text
Duration                                 : 2 h 8 min
Bit rate                                 : 36 b/s
Count of elements                        : 1263
Stream size                              : 34.3 KiB (0%)
Title                                    : Portuguese
Language                                 : Portuguese
Default                                  : No
Forced                                   : No

Text #24
ID                                       : 27
Format                                   : UTF-8
Codec ID                                 : S_TEXT/UTF8
Codec ID/Info                            : UTF-8 Plain Text
Duration                                 : 2 h 8 min
Bit rate                                 : 35 b/s
Count of elements                        : 1257
Stream size                              : 33.2 KiB (0%)
Title                                    : Brazilian Portuguese
Language                                 : Portuguese
Default                                  : No
Forced                                   : No

Text #25
ID                                       : 28
Format                                   : UTF-8
Codec ID                                 : S_TEXT/UTF8
Codec ID/Info                            : UTF-8 Plain Text
Duration                                 : 2 h 8 min
Bit rate                                 : 34 b/s
Count of elements                        : 1246
Stream size                              : 32.3 KiB (0%)
Title                                    : Romanian
Language                                 : Romanian
Default                                  : No
Forced                                   : No

Text #26
ID                                       : 29
Format                                   : UTF-8
Codec ID                                 : S_TEXT/UTF8
Codec ID/Info                            : UTF-8 Plain Text
Duration                                 : 2 h 8 min
Bit rate                                 : 32 b/s
Count of elements                        : 961
Stream size                              : 30.8 KiB (0%)
Title                                    : Swedish
Language                                 : Swedish
Default                                  : No
Forced                                   : No

Text #27
ID                                       : 30
Format                                   : UTF-8
Codec ID                                 : S_TEXT/UTF8
Codec ID/Info                            : UTF-8 Plain Text
Duration                                 : 2 h 8 min
Bit rate                                 : 89 b/s
Count of elements                        : 1270
Stream size                              : 84.8 KiB (0%)
Title                                    : Thai
Language                                 : Thai
Default                                  : No
Forced                                   : No

Text #28
ID                                       : 31
Format                                   : UTF-8
Codec ID                                 : S_TEXT/UTF8
Codec ID/Info                            : UTF-8 Plain Text
Duration                                 : 2 h 8 min
Bit rate                                 : 30 b/s
Count of elements                        : 1271
Stream size                              : 28.4 KiB (0%)
Title                                    : Turkish
Language                                 : Turkish
Default                                  : No
Forced                                   : No

Text #29
ID                                       : 32
Format                                   : UTF-8
Codec ID                                 : S_TEXT/UTF8
Codec ID/Info                            : UTF-8 Plain Text
Duration                                 : 2 h 8 min
Bit rate                                 : 49 b/s
Count of elements                        : 1271
Stream size                              : 46.6 KiB (0%)
Title                                    : Vietnamese
Language                                 : Vietnamese
Default                                  : No
Forced                                   : No

Text #30
ID                                       : 33
Format                                   : UTF-8
Codec ID                                 : S_TEXT/UTF8
Codec ID/Info                            : UTF-8 Plain Text
Duration                                 : 2 h 8 min
Bit rate                                 : 34 b/s
Count of elements                        : 1271
Stream size                              : 32.9 KiB (0%)
Title                                    : Simplified Chinese
Language                                 : Chinese
Default                                  : No
Forced                                   : No

Text #31
ID                                       : 34
Format                                   : UTF-8
Codec ID                                 : S_TEXT/UTF8
Codec ID/Info                            : UTF-8 Plain Text
Duration      
[+] Всего файлов в раздаче - 1:
The.Red.Sea.Diving.Resort.2019.WEB-DL.1080p.mkv4.93 GB

Похожие раздачи по запросу - курорт:
2019-08-13 U Курорт для ныряльщиков на Красном море / Operation Brothers / The Red Sea Diving Resort (2019) WEB-DLRip-AVC | HDRezka Studio 1.48 GB ↑ 116 ↓ 23
2019-08-12 U Курорт для ныряльщиков на Красном море / Operation Brothers / The Red Sea Diving Resort (2019) WEB-DLRip | HDRezka Studio 1.47 GB ↑ 250 ↓ 77
2019-08-01 U Курорт для ныряльщиков на Красном море / The Red Sea Diving Resort (2019) WEBRip 1080p | Sub 4.77 GB ↑ 56 ↓ 116

Отзывы
Зарегистрируйтесь чтобы добавить комментарий.
Обратная связь
Copyleft ©