↑↓Torrent.by
Поиск
Логин: Регистрация
Пароль: Восстановить пароль
Загрузка...

Оперативник / The Operative (2019) WEB-DL 1080p | HDRezka Studio

Скачать operativnik-the-operative-2019-web-dl-1080p-hdrezka-studio.torrent
U Магнитная ссылка Размер: 8.61 GB Раздают: 80 Качают: 64 Добавлен: 2019-08-12 07:12:06
Оперативник / The Operative (2019) WEB-DL 1080p | HDRezka Studio

Название: Оперативник
Оригинальное название: The Operative
Год выпуска: 2019
Жанр:  Триллер
Режиссер: Юваль Адлер
В ролях: Дайан Крюгер, Мартин Фриман, Кэс Анвар, Ротем Кейнан, Лана Эттинджер, Йоав Леви, Йоханан Херсон, Кейт Николс, Даниэль Вандельт, Юлия Шнайдер

О фильме: Рэйчел бегло говорит на нескольких языках. Идеальная квалификация для агента израильской службы внешней разведки Моссад, которая ее завербовала. Офицер связи Томас высоко ценит ее. Оперативное командование в Израиле также доверяет ей, и поэтому Рэйчел отправляется в Тегеран с секретной миссией. Очарованная этой чужой страной, она тщательно вписывается в повседневную жизнь и заводит роман с бизнесменом Фархадом, человеком, за которым ей поручили шпионить. Но ее миссия становится все более и более требовательной и опасной, пока она наконец не решает бросить задание. Она оставляет загадочное сообщение для Томаса, который должен найти ее, прежде чем она станет угрозой для Израиля.

Выпущено: США, Израиль, Франция, Германия, Black Bear Pictures, Bord Cadre Films
Продолжительность: 01:56:38
Перевод: Профессиональный (многоголосый закадровый) HDRezka Studio

Файл
Формат: MKV
Качество: WEB-DL 1080p
Видео: MPEG4 AVC Video, H264, 16:9, 1920x1080, 24 fps, 10000 Kbps
Аудио#1: Russian (AAC, 2 ch, 180 kbps, 16 bits, 48.0 KHz) - HDRezka Studio
Аудио#2: English (E-AC3, 6 ch, 640 kbps, 16 bits, 48.0 KHz) - Оригинал
Субтитры: Русские (Forced), английские


[+] Инфо-файл
General
Unique ID                                : 72443587655786370449337223956908689261 (0x368020A22B6C52F792AFC4D7F4EF476D)
Complete name                            : G:The.Operative.2019.AMZN.WEB-DL.1080p.mkv
Format                                   : Matroska
Format version                           : Version 4 / Version 2
File size                                : 8.61 GiB
Duration                                 : 1 h 56 min
Overall bit rate                         : 10.6 Mb/s
Encoded date                             : UTC 2019-08-11 16:54:33
Writing application                      : mkvmerge v20.0.0 ('I Am The Sun') 64-bit
Writing library                          : libebml v1.3.5 + libmatroska v1.4.8
Cover                                    : Yes
Attachments                              : cover_land.jpg

Video
ID                                       : 1
Format                                   : AVC
Format/Info                              : Advanced Video Codec
Format profile                           : High@L4
Format settings                          : CABAC / 4 Ref Frames
Format settings, CABAC                   : Yes
Format settings, RefFrames               : 4 frames
Codec ID                                 : V_MPEG4/ISO/AVC
Duration                                 : 1 h 56 min
Bit rate mode                            : Constant
Bit rate                                 : 10 000 kb/s
Width                                    : 1 920 pixels
Height                                   : 1 080 pixels
Display aspect ratio                     : 16:9
Frame rate mode                          : Constant
Frame rate                               : 24.000 FPS
Color space                              : YUV
Chroma subsampling                       : 4:2:0
Bit depth                                : 8 bits
Scan type                                : Progressive
Bits/(Pixel*Frame)                       : 0.201
Stream size                              : 7.94 GiB (92%)
Language                                 : English
Default                                  : Yes
Forced                                   : No
Color range                              : Limited
Color primaries                          : BT.709
Transfer characteristics                 : BT.709
Matrix coefficients                      : BT.709

Audio #1
ID                                       : 2
Format                                   : AAC
Format/Info                              : Advanced Audio Codec
Format profile                           : LC
Codec ID                                 : A_AAC-2
Duration                                 : 1 h 56 min
Bit rate                                 : 185 kb/s
Channel(s)                               : 2 channels
Channel positions                        : Front: L R
Sampling rate                            : 48.0 kHz
Frame rate                               : 46.875 FPS (1024 SPF)
Compression mode                         : Lossy
Stream size                              : 154 MiB (2%)
Title                                    : MVO HDRezka Studio
Language                                 : Russian
Default                                  : Yes
Forced                                   : No

Audio #2
ID                                       : 3
Format                                   : AC-3
Format/Info                              : Audio Coding 3
Codec ID                                 : A_AC3
Duration                                 : 1 h 56 min
Bit rate mode                            : Constant
Bit rate                                 : 640 kb/s
Channel(s)                               : 6 channels
Channel positions                        : Front: L C R, Side: L R, LFE
Sampling rate                            : 48.0 kHz
Frame rate                               : 31.250 FPS (1536 SPF)
Bit depth                                : 16 bits
Compression mode                         : Lossy
Stream size                              : 534 MiB (6%)
Language                                 : English
Service kind                             : Complete Main
Default                                  : No
Forced                                   : No

Text #1
ID                                       : 4
Format                                   : UTF-8
Codec ID                                 : S_TEXT/UTF8
Codec ID/Info                            : UTF-8 Plain Text
Duration                                 : 1 h 47 min
Bit rate                                 : 8 b/s
Count of elements                        : 96
Stream size                              : 6.62 KiB (0%)
Title                                    : forced
Language                                 : Russian
Default                                  : Yes
Forced                                   : Yes

Text #2
ID                                       : 5
Format                                   : UTF-8
Codec ID                                 : S_TEXT/UTF8
Codec ID/Info                            : UTF-8 Plain Text
Duration                                 : 1 h 47 min
Bit rate                                 : 45 b/s
Count of elements                        : 1343
Stream size                              : 35.7 KiB (0%)
Language                                 : English
Default                                  : No
Forced                                   : No



Скриншоты:
[+] Всего файлов в раздаче - 1:
The.Operative.2019.AMZN.WEB-DL.1080p.mkv8.61 GB

Похожие раздачи по запросу - оперативник:
2019-08-12 U Оперативник / The Operative (2019) WEB-DLRip-AVC от ExKinoRay | HDRezka Studio 1.96 GB ↑ 134 ↓ 37
2019-08-12 U Оперативник / The Operative (2019) WEB-DLRip от MegaPeer | HDRezka Studio 1.46 GB ↑ 160 ↓ 72

Отзывы
Зарегистрируйтесь чтобы добавить комментарий.
Обратная связь
Copyleft ©