↑↓Torrent.by
Поиск
Логин: Регистрация
Пароль: Восстановить пароль
Загрузка...

Прощай, любовник / Goodbye Lover (1998) WEB-DL 1080p | D, A

Скачать proschay-lyubovnik-goodbye-lover-1998-web-dl-1080p-d-a.torrent
U Магнитная ссылка Размер: 6.85 GB Раздают: 42 Качают: 15 Добавлен: 2019-08-12 07:12:25
Прощай, любовник / Goodbye Lover (1998) WEB-DL 1080p | D, A

Название: Прощай, любовник
Оригинальное название: Goodbye Lover
Год выхода: 1998
Страна: США
Студия: Regency Enterprises, Gotham Entertainment Group, Lightmotive
Продолжительность: 01:41:00
Жанр: триллер, комедия, криминал, детектив

Режиссер: Роланд Жоффе
В ролях: Патриция Аркетт, Дермот Малруни, Мэри-Луиз Паркер, Эллен ДеДженерес, Рэй МакКиннон, Алекс Рокко, Дон Джонсон, Андре Грегори, Джон Невилл, ДжоНелл Кеннеди, ...

Перевод:
- Профессиональный (дублированный) Варус-Видео R5 от «Мост-Видео»
- Авторский (одноголосый, закадровый) Живов Юрий Викторович
- Субтитры

О фильме: Один из самых восхитительных образов роковой женщины — современная, деловая, убивающая своих любовников. В сплетенную ею паутину интриг попадают буквально все окружающие.
Под подозрением — ее муж, ее любовник, жена ее любовника, любовница ее мужа и даже — полицейские, расследующие убийства…

Кодек: x264
Качество: WEB-DL 1080p
Видео: 1920x816, 8338 kbps, 23,976 fps
Аудио #1: AC-3, 6 ch, 384 kbps (Rus) - Dub Варус-Видео R5 «Мост-Видео»
Аудио #2: AC-3, 2 ch, 192 kbps (Rus) - AVO Живов Юрий Викторович
Аудио #3: AC-3, 6 ch, 384 kbps (Eng) - DVD «Мост-Видео»
Аудио #4: AC-3, 2 ch, 224 kbps (Eng)
Субтитры: русские, английские


[+] MediaInfo
Общее
Уникальный идентификатор : 241124945143165313963580843500163025530 (0xB566F9A7F3BAAE068F311A9E7D1BCA7A)
Полное имя : Прощай, любовник (Goodbye Lover) 1998 WEBRip 1080p.mkv
Формат : Matroska
Версия формата : Version 2
Размер файла : 6,85 Гбайт
Продолжительность : 1 ч. 41 м.
Режим общего битрейта : Переменный
Общий поток : 9715 Кбит/сек
Дата кодирования : UTC 2019-08-05 12:20:17
Программа кодирования : mkvmerge v4.0.0 ('The Stars were mine') сборка от Jun 6 2010 16:18:42
Библиотека кодирования : libebml v1.0.0 + libmatroska v1.0.0

Видео
Идентификатор : 1
Формат : AVC
Формат/Информация : Advanced Video Codec
Профиль формата : High@L4
Параметр CABAC формата : Да
Параметр ReFrames формата : 4 кадра
Идентификатор кодека : V_MPEG4/ISO/AVC
Продолжительность : 1 ч. 41 м.
Вид битрейта : Переменный
Битрейт : 8338 Кбит/сек
Максимальный битрейт : 15,0 Мбит/сек
Ширина : 1920 пикселей
Высота : 816 пикселей
Соотношение сторон : 2,35:1
Режим частоты кадров : Постоянный
Частота кадров : 23,976 (24000/1001) кадра/сек
Цветовое пространство : YUV
Субдискретизация насыщенности : 4:2:0
Битовая глубина : 8 бит
Тип развёртки : Прогрессивная
Бит/(Пиксели*Кадры) : 0.222
Размер потока : 5,88 Гбайт (86%)
Библиотека кодирования : x264 core 148 r2623 d5b2374
Настройки программы : cabac=1 / ref=4 / deblock=1:-1:-1 / analyse=0x3:0x133 / me=umh / subme=9 / psy=1 / psy_rd=1.00:0.15 / mixed_ref=1 / me_range=24 / chroma_me=1 / trellis=2 / 8x8dct=1 / cqm=0 / deadzone=21,11 / fast_pskip=1 / chroma_qp_offset=-3 / threads=25 / lookahead_threads=4 / sliced_threads=0 / nr=150 / decimate=1 / interlaced=0 / bluray_compat=0 / constrained_intra=0 / bframes=8 / b_pyramid=2 / b_adapt=2 / b_bias=0 / direct=3 / weightb=1 / open_gop=0 / weightp=2 / keyint=120 / keyint_min=61 / scenecut=0 / intra_refresh=0 / rc_lookahead=120 / rc=crf / mbtree=1 / crf=18.0 / qcomp=0.60 / qpmin=0 / qpmax=69 / qpstep=4 / vbv_maxrate=15000 / vbv_bufsize=31250 / crf_max=0.0 / nal_hrd=vbr / filler=0 / ip_ratio=1.40 / aq=3:1.00
Язык : English
Default : Нет
Forced : Нет
Цветовой диапазон : Limited
Основные цвета : BT.709
Характеристики трансфера : BT.709
Коэффициенты матрицы : BT.709

Аудио #1
Идентификатор : 2
Формат : AC-3
Формат/Информация : Audio Coding 3
Расширение режима : CM (complete main)
Параметр Endianness формата : Big
Идентификатор кодека : A_AC3
Продолжительность : 1 ч. 41 м.
Вид битрейта : Постоянный
Битрейт : 384 Кбит/сек
Каналы : 6 каналов
Расположение каналов : Front: L C R, Side: L R, LFE
Частота : 48,0 КГц
Частота кадров : 31,250 кадров/сек (1536 spf)
Метод сжатия : С потерями
Размер потока : 277 Мбайт (4%)
Заголовок : Dub Варус-Видео R5 «Мост-Видео»
Язык : Russian
Default : Нет
Forced : Нет

Аудио #2
Идентификатор : 3
Формат : AC-3
Формат/Информация : Audio Coding 3
Расширение режима : CM (complete main)
Параметр Endianness формата : Big
Идентификатор кодека : A_AC3
Продолжительность : 1 ч. 41 м.
Вид битрейта : Постоянный
Битрейт : 192 Кбит/сек
Каналы : 2 канала
Расположение каналов : Front: L R
Частота : 48,0 КГц
Частота кадров : 31,250 кадров/сек (1536 spf)
Метод сжатия : С потерями
Размер потока : 139 Мбайт (2%)
Заголовок : AVO Живов Юрий Викторович
Язык : Russian
Default : Нет
Forced : Нет

Аудио #3
Идентификатор : 4
Формат : AC-3
Формат/Информация : Audio Coding 3
Расширение режима : CM (complete main)
Параметр Endianness формата : Big
Идентификатор кодека : A_AC3
Продолжительность : 1 ч. 41 м.
Вид битрейта : Постоянный
Битрейт : 384 Кбит/сек
Каналы : 6 каналов
Расположение каналов : Front: L C R, Side: L R, LFE
Частота : 48,0 КГц
Частота кадров : 31,250 кадров/сек (1536 spf)
Метод сжатия : С потерями
Размер потока : 277 Мбайт (4%)
Заголовок : DVD «Мост-Видео»
Язык : English
Default : Нет
Forced : Нет

Аудио #4
Идентификатор : 5
Формат : AC-3
Формат/Информация : Audio Coding 3
Расширение режима : CM (complete main)
Параметр Endianness формата : Big
Идентификатор кодека : A_AC3
Продолжительность : 1 ч. 41 м.
Вид битрейта : Постоянный
Битрейт : 224 Кбит/сек
Каналы : 2 канала
Расположение каналов : Front: L R
Частота : 48,0 КГц
Частота кадров : 31,250 кадров/сек (1536 spf)
Метод сжатия : С потерями
Размер потока : 162 Мбайт (2%)
Язык : English
Default : Нет
Forced : Нет

Текст #1
Идентификатор : 6
Формат : UTF-8
Идентификатор кодека : S_TEXT/UTF8
Идентификатор кодека/Информация : UTF-8 Plain Text
Язык : Russian
Default : Нет
Forced : Нет

Текст #2
Идентификатор : 7
Формат : UTF-8
Идентификатор кодека : S_TEXT/UTF8
Идентификатор кодека/Информация : UTF-8 Plain Text
Язык : English
Default : Нет
Forced : Нет



Скриншоты:
[+] Всего файлов в раздаче - 1:
Прощай, любовник (Goodbye Lover) 1998 WEBRip 1080p.mkv6.85 GB

Похожие раздачи по запросу - прощай:
2019-08-12 U Прощай, любовник / Goodbye Lover (1998) DVDRip-AVC | D, A 2.68 GB ↑ 18 ↓ 11
2019-07-22 U BBC Horizon: Прощай, Кассини. Здравствуй, Сатурн! / Goodbye Cassini - Hello Saturn (2017) DVB | P2 670.84 MB ↑ 69 ↓ 12
2019-06-01 U Ракицкий Андрей - Прощай, лишний вес. Психологические техники для похудения без диет и таблеток (2019) FB2, PDF 2.62 MB ↑ 85 ↓ 61
2018-01-07 U Прощай, Кристофер Робин / Goodbye Christopher Robin (2017) WEB-DLRip-AVC | P | iTunes 1.87 GB ↑ 257 ↓ 27

Отзывы
Зарегистрируйтесь чтобы добавить комментарий.
Обратная связь
Copyleft ©