↑↓Torrent.by
Поиск
Логин: Регистрация
Пароль: Восстановить пароль
Загрузка...

Почтальон всегда звонит дважды / The Postman Always Rings Twice (1981) BDRip-AVC | D

Скачать pochtalon-vsegda-zvonit-dvazhdy-the-postman-always-rings-twice-1981-bdrip-avc-d.torrent
U Магнитная ссылка Размер: 3.29 GB Раздают: 21 Качают: 8 Добавлен: 2019-08-12 07:13:05
Почтальон всегда звонит дважды / The Postman Always Rings Twice (1981) BDRip-AVC | D

Название: Почтальон всегда звонит дважды
Оригинальное название: The Postman Always Rings Twice
Год выхода: 1981
Жанр:  триллер, драма, мелодрама, криминал
Режиссер: Боб Рейфелсон / Bob Rafelson
В ролях: Джек Николсон, Джессика Лэнг, Джон Коликос, Майкл Лернер, Джон П. Райан, Анжелика Хьюстон, Уильям Трейлор, Томас Хилл, Джон Ван Несс, Брайан Фэррел

О фильме:
Времена Великой Депрессии. Бродяга Фрэнк Чемберс нанимается в работники на бензоколонку к пожилому греку Нику Пападакису, который вместе с молодой женой Корой содержит таверну «Два дуба». Словно луч света в темном царстве, стало для Коры появление Фрэнка в их доме.

Изнывающая в скучном, бесстрастном браке, она влюбляется во Фрэнка. Между ними вспыхивает безудержная страсть и Коре первой приходит в голову мысль избавиться от постылого мужа — со второй попытки им это удается. И когда случается непоправимое — за преступлением следует наказание.

Страна: США, Германия (ФРГ)
Студия: Metro-Goldwyn-Mayer (MGM), CIP Filmproduktion GmbH, Lorimar Film Entertainment...
Продолжительность: 02:01:16
Перевод: Дубляж x2
Субтитры: Russian, English

Файл
Формат: MKV
Тип релиза: BDRip-AVC [BDRemux 1080p от HDClub]
Видео: 1032x584 at 23.976 fps, x264@L4.1, ~3426 kbps
Аудио #1: Russian: 48 kHz, AC3, 2.0 (L,R) ch, 192 kbps avg |Дубляж, Варус-видео|
Аудио #2: Russian: 48 kHz, AC3, 2.0 (L,R) ch, 192 kbps avg |Дубляж, Советский|
Формат субтитров: softsub (SRT)
Навигация по главам: Есть

***Релиз от: -=DoMiNo=-


[+] M/I
x264 info: frame I:963   Avg QP:16.30  size: 80228
x264 info: frame P:34918 Avg QP:17.74  size: 36838
x264 info: frame B:138576 Avg QP:20.19  size: 13120
x264 info: consecutive B-frames:  0.8%  0.8%  3.7% 23.7% 24.6% 34.3%  6.7%  3.3%  0.8%  0.4%  0.3%  0.2%  0.4%

General
Unique ID                   : 307434599486777096409008568033552388344 (0xE749C007288B01993B57B6EC881450F8)
Complete name               : Почтальон всегда звонит дважды_(1981)_BDRIP-AVC_[-=DoMiNo=-].mkv
Format                      : Matroska
Format version              : Version 4
File size                   : 3.29 GiB
Duration                    : 2 h 1 min
Overall bit rate            : 3 887 kb/s
Movie name                  : Почтальон всегда звонит дважды
Deion                 : Френк Чамберс бродяга перебивающийся случайными заработками. Он останавливается в небольшом ресторане и знакомится там с супругой хозяина ресторана Корой Смит. Между привлекательной молодой женщиной и сезонным работником возникает любовная связь. Коре надоело скрывать отношения с Френком и надоел её муж, эмигрант-грек, который намного старше её. У любовников возникает план, как убрать мешающего им мужа Коры.
Attachments                 : poster.jpg
ACTORS                      : Jack Nicholson, Jessica Lange, John Colicos, Michael Lerner, Anjelica Huston, John P. Ryan, William Traylor, Jon Van Ness, Brian Farrell, Albert Henderson, Christopher Lloyd, Don Calfa, Louis Turenne, Thomas Hill, Sam Edwards, Joni Palmer, Lionel Mark Smith, Virgil Frye, Brion James, Ron Flagge, Elsa Raven, James O'Connell, William Newman, Raleigh Bond, Glenn Shadix, Tani Guthrie, Carolyn Coates, Kopi Sotiropulos
COUNTRY                     : Germany, United States
DATE                        : 1981-03-20
DIRECTOR                    : Bob Rafelson
GENRE                       : мелодрама, криминал, драма
ORIGINAL_TITLE              : The Postman Always Rings Twice
PRODUCER                    : Charles Mulvehill, Bob Rafelson
PUBLISHER                   : CIP Filmproduktion GmbH, Lorimar Film Entertainment, Northstar International
RATING                      : 6.50
WRITER                      : David Mamet

Video
ID                          : 1
Format                      : AVC
Format/Info                 : Advanced Video Codec
Format profile              : High@L4.1
Format settings             : CABAC / 13 Ref Frames
Format settings, CABAC      : Yes
Format settings, ReFrames   : 13 frames
Codec ID                    : V_MPEG4/ISO/AVC
Duration                    : 2 h 1 min
Bit rate                    : 3 426 kb/s
Width                       : 1 032 pixels
Height                      : 584 pixels
Display aspect ratio        : 16:9
Frame rate mode             : Constant
Frame rate                  : 23.976 (24000/1001) FPS
Color space                 : YUV
Chroma subsampling          : 4:2:0
Bit depth                   : 8 bits
Scan type                   : Progressive
Bits/(Pixel*Frame)          : 0.237
Stream size                 : 2.90 GiB (88%)
Title                       : RIP_BY_-=DoMiNo=-
Writing library             : x264 core 157 r2935 545de2f
Encoding settings           : cabac=1 / ref=13 / deblock=1:-2:-2 / analyse=0x3:0x133 / me=umh / subme=11 / psy=1 / psy_rd=1.08:0.00 / mixed_ref=1 / me_range=32 / chroma_me=1 / trellis=2 / 8x8dct=1 / cqm=0 / deadzone=21,11 / fast_pskip=0 / chroma_qp_offset=-2 / threads=6 / lookahead_threads=1 / sliced_threads=0 / nr=0 / decimate=1 / interlaced=0 / bluray_compat=0 / constrained_intra=0 / bframes=12 / b_pyramid=2 / b_adapt=2 / b_bias=0 / direct=1 / weightb=1 / open_gop=0 / weightp=2 / keyint=240 / keyint_min=24 / scenecut=40 / intra_refresh=0 / rc=crf / mbtree=0 / crf=18.0 / qcomp=0.65 / qpmin=10 / qpmax=69 / qpstep=4 / ip_ratio=1.40 / pb_ratio=1.30 / aq=1:0.75
Language                    : English
Default                     : Yes
Forced                      : No

Audio #1
ID                          : 2
Format                      : AC-3
Format/Info                 : Audio Coding 3
Commercial name             : Dolby Digital
Codec ID                    : A_AC3
Duration                    : 2 h 1 min
Bit rate mode               : Constant
Bit rate                    : 192 kb/s
Channel(s)                  : 2 channels
Channel layout              : L R
Sampling rate               : 48.0 kHz
Frame rate                  : 31.250 FPS (1536 SPF)
Bit depth                   : 16 bits
Compression mode            : Lossy
Stream size                 : 167 MiB (5%)
Title                       : Dub
Language                    : Russian
Service kind                : Complete Main
Default                     : Yes
Forced                      : No

Audio #2
ID                          : 3
Format                      : AC-3
Format/Info                 : Audio Coding 3
Commercial name             : Dolby Digital
Codec ID                    : A_AC3
Duration                    : 2 h 1 min
Bit rate mode               : Constant
Bit rate                    : 192 kb/s
Channel(s)                  : 2 channels
Channel layout              : L R
Sampling rate               : 48.0 kHz
Frame rate                  : 31.250 FPS (1536 SPF)
Bit depth                   : 16 bits
Compression mode            : Lossy
Stream size                 : 167 MiB (5%)
Title                       : Dub
Language                    : Russian
Service kind                : Complete Main
Default                     : No
Forced                      : No

Text #1
ID                          : 4
Format                      : UTF-8
Codec ID                    : S_TEXT/UTF8
Codec ID/Info               : UTF-8 Plain Text
Title                       : srt
Language                    : Russian
Default                     : Yes
Forced                      : No

Text #2
ID                          : 5
Format                      : UTF-8
Codec ID                    : S_TEXT/UTF8
Codec ID/Info               : UTF-8 Plain Text
Title                       : srt
Language                    : English
Default                     : No
Forced                      : No

Menu
00:00:00.000                : :00:00:00.000
00:02:23.935                : :00:02:23.935
00:08:21.625                : :00:08:21.625
00:11:07.041                : :00:11:07.041
00:15:41.605                : :00:15:41.605
00:21:06.265                : :00:21:06.265
00:24:01.565                : :00:24:01.565
00:27:11.000                : :00:27:11.000
00:31:30.134                : :00:31:30.134
00:34:43.414                : :00:34:43.414
00:38:55.081                : :00:38:55.081
00:43:22.599                : :00:43:22.599
00:46:23.864                : :00:46:23.864
00:50:50.380                : :00:50:50.380
00:54:48.159                : :00:54:48.159
00:58:42.976                : :00:58:42.976
01:02:46.804                : :01:02:46.804
01:08:34.944                : :01:08:34.944
01:10:58.087                : :01:10:58.087
01:12:36.894                : :01:12:36.894
01:16:15.153                : :01:16:15.153
01:20:06.551                : :01:20:06.551
01:23:21.703                : :01:23:21.703
01:25:34.502                : :01:25:34.502
01:29:03.502                : :01:29:03.502
01:31:11.215                : :01:31:11.215
01:35:17.042                : :01:35:17.042
01:37:50.279                : :01:37:50.279
01:43:54.895                : :01:43:54.895
01:48:55.737                : :01:48:55.737
01:58:15.087                : :01:58:15.087



Скриншоты:
[+] Всего файлов в раздаче - 1:
Почтальон всегда звонит дважды_(1981)_BDRIP-AVC_[-=DoMiNo=-].mkv3.29 GB

Отзывы
Зарегистрируйтесь чтобы добавить комментарий.
Обратная связь
Copyleft ©