↑↓Torrent.by
Поиск
Логин: Регистрация
Пароль: Восстановить пароль
Загрузка...

Друзья и любовники / Friends & Lovers (1999) WEBRip 1080p | P2

Скачать druzya-i-lyubovniki-friends-lovers-1999-webrip-1080p-p2.torrent
U Магнитная ссылка Размер: 3.47 GB Раздают: 27 Качают: 11 Добавлен: 2019-08-12 07:13:13
Друзья и любовники / Friends & Lovers (1999) WEBRip 1080p | P2

Название: Друзья и любовники
Оригинальное название: Friends & Lovers
Год выхода: 1999

Страна: США
Студия: C.E.O. Films, Laguna Entertainment
Продолжительность: 01:43:14
Жанр: драма, мелодрама, комедия

Режиссер: Джордж Хаас
В ролях: Стивен Болдуин, Дэнни Нуччи, Джордж Ньюберн, Элисон Иствуд, Клаудия Шиффер, Роберт Дауни-мл., Сюзанн Крайер, Дэвид Раш, Нилл Бэрри, Леон, Энн Магнусон, ...

Перевод: Профессиональный (двуголосый, закадровый) студия Видео-М

О фильме: Компания старинных друзей собирается вместе отпраздновать Рождество. Они решают провести праздничный уикенд, катаясь на горных лыжах. Но вместо славного отдыха в кругу друзей получается полный бардак.
Все заняты только собой и одержимы только собственными проблемами, а в результате наша славная компания постоянно попадает в самые непредвиденные забавные и пикантные ситуации…

Кодек: x264
Качество: WEBRip 1080p
Видео: 1920x1080, 4400 kbps, 23,976 fps
Аудио #1: AC-3, 2 ch, 224 kbps (Rus) - DVO Видео-М (Екатеринбург-Арт)
Аудио #2: AC-3, 2 ch, 224 kbps (Eng)
Субтитры: английские


[+] MediaInfo
Общее
Уникальный идентификатор : 216345817492412303065545929197374476453 (0xA2C2B056D873237CBC6C0A93A5C910A5)
Полное имя : Друзья и любовники (Friends & Lovers) 1999 WEBRip 1080p.mkv
Формат : Matroska
Версия формата : Version 2
Размер файла : 3,47 Гбайт
Продолжительность : 1 ч. 43 м.
Общий поток : 4808 Кбит/сек
Дата кодирования : UTC 2019-08-10 16:19:44
Программа кодирования : mkvmerge v4.0.0 ('The Stars were mine') сборка от Jun 6 2010 16:18:42
Библиотека кодирования : libebml v1.0.0 + libmatroska v1.0.0

Видео
Идентификатор : 1
Формат : AVC
Формат/Информация : Advanced Video Codec
Профиль формата : High@L4.1
Параметр CABAC формата : Да
Параметр ReFrames формата : 4 кадра
Идентификатор кодека : V_MPEG4/ISO/AVC
Продолжительность : 1 ч. 43 м.
Битрейт : 4400 Кбит/сек
Ширина : 1920 пикселей
Высота : 1080 пикселей
Соотношение сторон : 16:9
Режим частоты кадров : Постоянный
Частота кадров : 23,976 (23976/1000) кадра/сек
Частота кадров в оригинале : 23,976 (24000/1001) кадра/сек
Цветовое пространство : YUV
Субдискретизация насыщенности : 4:2:0
Битовая глубина : 8 бит
Тип развёртки : Прогрессивная
Бит/(Пиксели*Кадры) : 0.089
Размер потока : 3,07 Гбайт (89%)
Библиотека кодирования : x264 core 142 r2491 24e4fed
Настройки программы : cabac=1 / ref=3 / deblock=1:-1:-1 / analyse=0x3:0x113 / me=hex / subme=7 / psy=1 / psy_rd=1.00:0.00 / mixed_ref=1 / me_range=16 / chroma_me=1 / trellis=1 / 8x8dct=1 / cqm=0 / deadzone=21,11 / fast_pskip=1 / chroma_qp_offset=-2 / threads=6 / lookahead_threads=1 / sliced_threads=0 / nr=0 / decimate=1 / interlaced=0 / bluray_compat=0 / constrained_intra=0 / bframes=3 / b_pyramid=2 / b_adapt=1 / b_bias=0 / direct=1 / weightb=1 / open_gop=0 / weightp=2 / keyint=240 / keyint_min=24 / scenecut=40 / intra_refresh=0 / rc_lookahead=40 / rc=abr / mbtree=1 / bitrate=4400 / ratetol=1.0 / qcomp=0.60 / qpmin=0 / qpmax=69 / qpstep=4 / vbv_maxrate=62500 / vbv_bufsize=78125 / nal_hrd=none / filler=0 / ip_ratio=1.40 / aq=1:1.00
Язык : English
Default : Нет
Forced : Нет
Цветовой диапазон : Limited
Основные цвета : BT.601 NTSC
Характеристики трансфера : BT.709
Коэффициенты матрицы : BT.601

Аудио #1
Идентификатор : 2
Формат : AC-3
Формат/Информация : Audio Coding 3
Расширение режима : CM (complete main)
Параметр Endianness формата : Big
Идентификатор кодека : A_AC3
Продолжительность : 1 ч. 43 м.
Вид битрейта : Постоянный
Битрейт : 224 Кбит/сек
Каналы : 2 канала
Расположение каналов : Front: L R
Частота : 48,0 КГц
Частота кадров : 31,250 кадров/сек (1536 spf)
Метод сжатия : С потерями
Размер потока : 165 Мбайт (5%)
Заголовок : DVO студия Видео-М по заказу Екатеринбург-Арт
Язык : Russian
Default : Нет
Forced : Нет

Аудио #2
Идентификатор : 3
Формат : AC-3
Формат/Информация : Audio Coding 3
Расширение режима : CM (complete main)
Параметр Endianness формата : Big
Идентификатор кодека : A_AC3
Продолжительность : 1 ч. 43 м.
Вид битрейта : Постоянный
Битрейт : 224 Кбит/сек
Каналы : 2 канала
Расположение каналов : Front: L R
Частота : 48,0 КГц
Частота кадров : 31,250 кадров/сек (1536 spf)
Метод сжатия : С потерями
Размер потока : 165 Мбайт (5%)
Язык : English
Default : Нет
Forced : Нет

Текст
Идентификатор : 4
Формат : UTF-8
Идентификатор кодека : S_TEXT/UTF8
Идентификатор кодека/Информация : UTF-8 Plain Text
Язык : English
Default : Нет
Forced : Нет



Скриншоты:
[+] Всего файлов в раздаче - 1:
Друзья и любовники (Friends & Lovers) 1999 WEBRip 1080p.mkv3.47 GB

Похожие раздачи по запросу - друзья:
2014-04-08 U Верные друзья (1954) BDRip-AVC от MediaClub 2.18 GB ↑ 290 ↓ 2
2013-11-04 U Друзья / Friends [S01-10] (1994-2004) DVDRip 11К61.73 GB ↑ 33 ↓ 245

Отзывы
Зарегистрируйтесь чтобы добавить комментарий.
Обратная связь
Copyleft ©