↑↓Torrent.by
Поиск
Логин: Регистрация
Пароль: Восстановить пароль
Загрузка...

Прощай, любовник / Goodbye Lover (1998) DVDRip-AVC | D, A

Скачать proschay-lyubovnik-goodbye-lover-1998-dvdrip-avc-d-a.torrent
U Магнитная ссылка Размер: 2.68 GB Раздают: 18 Качают: 11 Добавлен: 2019-08-12 07:13:28
Прощай, любовник / Goodbye Lover (1998) DVDRip-AVC | D, A

Название: Прощай, любовник
Оригинальное название: Goodbye Lover
Год выхода: 1998
Страна: США
Студия: Regency Enterprises, Gotham Entertainment Group, Lightmotive
Продолжительность: 01:36:56
Жанр: триллер, комедия, криминал, детектив

Режиссер: Роланд Жоффе
В ролях: Патриция Аркетт, Дермот Малруни, Мэри-Луиз Паркер, Эллен ДеДженерес, Рэй МакКиннон, Алекс Рокко, Дон Джонсон, Андре Грегори, Джон Невилл, ДжоНелл Кеннеди, ...

Перевод:
- Профессиональный (дублированный) Варус-Видео R5 от «Мост-Видео»
- Авторский (одноголосый, закадровый) Живов Юрий Викторович
- Субтитры

О фильме: Один из самых восхитительных образов роковой женщины — современная, деловая, убивающая своих любовников. В сплетенную ею паутину интриг попадают буквально все окружающие.
Под подозрением — ее муж, ее любовник, жена ее любовника, любовница ее мужа и даже — полицейские, расследующие убийства…

Кодек: x264
Качество: DVDRip-AVC
Видео: 1020x424, 3000 kbps, 25 fps
Аудио #1: AC-3, 6 ch, 384 kbps (Rus) - Dub Варус-Видео R5 «Мост-Видео»
Аудио #2: AC-3, 2 ch, 192 kbps (Rus) - AVO Живов Юрий Викторович
Аудио #3: AC-3, 6 ch, 384 kbps (Eng)
Субтитры: русские, английские


[+] MediaInfo

x264 [info]: frame I:896   Avg QP:15.43  size: 57819
x264 [info]: frame P:29232 Avg QP:17.99  size: 26865
x264 [info]: frame B:115273 Avg QP:19.67  size: 11655
x264 [info]: consecutive B-frames:  1.1%  2.2%  7.1% 14.2% 17.6% 42.1%  8.5%  3.0%  2.0%  0.9%  0.5%  0.4%  0.3%

Общее
Уникальный идентификатор : 234650374916769284139512695369863891669 (0xB08804B2AD3AD117870200C414858AD5)
Полное имя : Прощай, любовник (Goodbye Lover) 1998 DVDRip.mkv
Формат : Matroska
Версия формата : Version 2
Размер файла : 2,68 Гбайт
Продолжительность : 1 ч. 36 м.
Общий поток : 3962 Кбит/сек
Дата кодирования : UTC 2019-08-05 06:33:09
Программа кодирования : mkvmerge v4.0.0 ('The Stars were mine') сборка от Jun 6 2010 16:18:42
Библиотека кодирования : libebml v1.0.0 + libmatroska v1.0.0

Видео
Идентификатор : 1
Формат : AVC
Формат/Информация : Advanced Video Codec
Профиль формата : High@L4.1
Параметр CABAC формата : Да
Параметр ReFrames формата : 12 кадров
Идентификатор кодека : V_MPEG4/ISO/AVC
Продолжительность : 1 ч. 36 м.
Битрейт : 3000 Кбит/сек
Ширина : 1020 пикселей
Высота : 424 пикселя
Соотношение сторон : 2,40:1
Режим частоты кадров : Постоянный
Частота кадров : 25,000 кадров/сек
Цветовое пространство : YUV
Субдискретизация насыщенности : 4:2:0
Битовая глубина : 8 бит
Тип развёртки : Прогрессивная
Бит/(Пиксели*Кадры) : 0.277
Размер потока : 1,98 Гбайт (74%)
Библиотека кодирования : x264 core 146 r2538 121396c
Настройки программы : cabac=1 / ref=12 / deblock=1:-1:-1 / analyse=0x3:0x133 / me=umh / subme=11 / psy=1 / psy_rd=1.00:0.00 / mixed_ref=1 / me_range=32 / chroma_me=1 / trellis=2 / 8x8dct=1 / cqm=0 / deadzone=21,11 / fast_pskip=0 / chroma_qp_offset=-2 / threads=12 / lookahead_threads=2 / sliced_threads=0 / nr=0 / decimate=0 / interlaced=0 / bluray_compat=0 / constrained_intra=0 / bframes=12 / b_pyramid=2 / b_adapt=2 / b_bias=0 / direct=3 / weightb=1 / open_gop=0 / weightp=2 / keyint=250 / keyint_min=25 / scenecut=40 / intra_refresh=0 / rc=2pass / mbtree=0 / bitrate=3000 / ratetol=1.0 / qcomp=0.60 / qpmin=0 / qpmax=69 / qpstep=4 / cplxblur=20.0 / qblur=0.5 / ip_ratio=1.40 / pb_ratio=1.30 / aq=3:0.80
Язык : English
Default : Нет
Forced : Нет

Аудио #1
Идентификатор : 2
Формат : AC-3
Формат/Информация : Audio Coding 3
Расширение режима : CM (complete main)
Параметр Endianness формата : Big
Идентификатор кодека : A_AC3
Продолжительность : 1 ч. 36 м.
Вид битрейта : Постоянный
Битрейт : 384 Кбит/сек
Каналы : 6 каналов
Расположение каналов : Front: L C R, Side: L R, LFE
Частота : 48,0 КГц
Частота кадров : 31,250 кадров/сек (1536 spf)
Метод сжатия : С потерями
Размер потока : 266 Мбайт (10%)
Заголовок : Dub Варус-Видео R5 «Мост-Видео»
Язык : Russian
Default : Нет
Forced : Нет

Аудио #2
Идентификатор : 3
Формат : AC-3
Формат/Информация : Audio Coding 3
Расширение режима : CM (complete main)
Параметр Endianness формата : Big
Идентификатор кодека : A_AC3
Продолжительность : 1 ч. 36 м.
Вид битрейта : Постоянный
Битрейт : 192 Кбит/сек
Каналы : 2 канала
Расположение каналов : Front: L R
Частота : 48,0 КГц
Частота кадров : 31,250 кадров/сек (1536 spf)
Метод сжатия : С потерями
Размер потока : 133 Мбайт (5%)
Заголовок : AVO Живов Юрий Викторович
Язык : Russian
Default : Нет
Forced : Нет

Аудио #3
Идентификатор : 4
Формат : AC-3
Формат/Информация : Audio Coding 3
Расширение режима : CM (complete main)
Параметр Endianness формата : Big
Идентификатор кодека : A_AC3
Продолжительность : 1 ч. 36 м.
Вид битрейта : Постоянный
Битрейт : 384 Кбит/сек
Каналы : 6 каналов
Расположение каналов : Front: L C R, Side: L R, LFE
Частота : 48,0 КГц
Частота кадров : 31,250 кадров/сек (1536 spf)
Метод сжатия : С потерями
Задержка видео : 24 мс.
Размер потока : 266 Мбайт (10%)
Язык : English
Default : Нет
Forced : Нет

Текст #1
Идентификатор : 5
Формат : UTF-8
Идентификатор кодека : S_TEXT/UTF8
Идентификатор кодека/Информация : UTF-8 Plain Text
Язык : Russian
Default : Нет
Forced : Нет

Текст #2
Идентификатор : 6
Формат : UTF-8
Идентификатор кодека : S_TEXT/UTF8
Идентификатор кодека/Информация : UTF-8 Plain Text
Язык : English
Default : Нет
Forced : Нет

Меню
00:00:00.080 : en:Chapter 01
00:03:29.200 : en:Chapter 02
00:06:17.160 : en:Chapter 03
00:09:29.240 : en:Chapter 04
00:12:14.600 : en:Chapter 05
00:16:53.920 : en:Chapter 06
00:19:59.800 : en:Chapter 07
00:24:03.200 : en:Chapter 08
00:25:36.800 : en:Chapter 09
00:27:42.360 : en:Chapter 10
00:30:18.880 : en:Chapter 11
00:33:28.160 : en:Chapter 12
00:36:43.960 : en:Chapter 13
00:39:54.480 : en:Chapter 14
00:42:16.600 : en:Chapter 15
00:46:11.080 : en:Chapter 16
00:48:16.240 : en:Chapter 17
00:50:06.120 : en:Chapter 18
00:53:56.920 : en:Chapter 19
00:58:00.920 : en:Chapter 20
01:00:36.800 : en:Chapter 21
01:03:25.760 : en:Chapter 22
01:08:07.080 : en:Chapter 23
01:11:36.560 : en:Chapter 24
01:13:32.320 : en:Chapter 25
01:14:49.360 : en:Chapter 26
01:17:58.080 : en:Chapter 27
01:19:43.360 : en:Chapter 28
01:22:53.320 : en:Chapter 29
01:27:21.000 : en:Chapter 30
01:29:24.760 : en:Chapter 31
01:32:39.120 : en:Chapter 32



Скриншоты:
[+] Всего файлов в раздаче - 1:
Прощай, любовник (Goodbye Lover) 1998 DVDRip.mkv2.68 GB

Похожие раздачи по запросу - прощай:
2019-08-12 U Прощай, любовник / Goodbye Lover (1998) WEB-DL 1080p | D, A 6.85 GB ↑ 42 ↓ 15
2019-07-22 U BBC Horizon: Прощай, Кассини. Здравствуй, Сатурн! / Goodbye Cassini - Hello Saturn (2017) DVB | P2 670.84 MB ↑ 70 ↓ 12
2019-06-01 U Ракицкий Андрей - Прощай, лишний вес. Психологические техники для похудения без диет и таблеток (2019) FB2, PDF 2.62 MB ↑ 86 ↓ 62
2018-01-07 U Прощай, Кристофер Робин / Goodbye Christopher Robin (2017) WEB-DLRip-AVC | P | iTunes 1.87 GB ↑ 257 ↓ 27

Отзывы
Зарегистрируйтесь чтобы добавить комментарий.
Обратная связь
Copyleft ©