↑↓Torrent.by
Поиск
Логин: Регистрация
Пароль: Восстановить пароль
Загрузка...

Курорт для ныряльщиков на Красном море / Operation Brothers / The Red Sea Diving Resort (2019) WEB-DLRip | HDRezka Studio

Скачать kurort-dlya-nyryalschikov-na-krasnom-more-operation-brothers-the-red-sea-diving-resort-2019-web-dlrip-hdrezka-studio.torrent
U Магнитная ссылка Размер: 1.47 GB Раздают: 249 Качают: 77 Добавлен: 2019-08-12 17:14:32
Курорт для ныряльщиков на Красном море / Operation Brothers / The Red Sea Diving Resort (2019) WEB-DLRip | HDRezka Studio

Курорт для ныряльщиков на Красном море / Operation Brothers / The Red Sea Diving Resort

Страна: США
Производство: Bron Studios, Creative Wealth Media Finance, EMJAG Productions, Shaken Not Stirred
Год выпуска: 2019
Жанр:  триллер, драма, история
Продолжительность: 02:10:10

Режиссер: Гидеон Рафф / Gideon Raff
В ролях: Крис Эванс, Хейли Беннетт, Майкл Кеннет Уильямс, Михиль Хаусман, Бен Кингсли, Алона Тал, Алессандро Нивола, Грег Киннир, Крис Чок

Описание: История о миссии израильской разведывательной службы «Моссад», которая в 1980-х годах перевезла в Израиль несколько тысяч угнетённых евреев из Эфиопии. Молодой спецагент Ари Кидрона вместе со своей командой основывает тайный порт на побережье Красного моря. Наладив воздушные и морские мосты, он организует массовую переправку беженцев...

Перевод: Профессиональный (многоголосый, закадровый) | HDRezka Studio
Субтитры: нет

Качество: WEB-DLRip
Формат: AVI
Видео кодек: XviD
Аудио кодек: АС3
Видео: 720x304 (2.35:1), 24.000 fps, XviD build 73 ~1 413 kbps avg
Аудио: 48.0 kHz, AC3 Dolby Digital, 2/0 (L,R) ch, ~192 kbps

Дата премьеры (мир): 31 июля 2019

Релиз от: порошков


[+] Media Info
General
Формат                                   : AVI
Формат/Информация                        : Audio Video Interleave
Размер файла                             : 1,47 Гбайт
Продолжительность                        : 2 ч. 10 м.
Общий поток                              : 1614 Кбит/сек
Название фильма                          : Курорт для ныряльщиков на Красном море_2019_WEB-DLRip
Программа кодирования                    : VirtualDubMod 1.5.10.3 | (build 2550/release)
Авторское право                          : порошков

Видео
Идентификатор                            : 0
Формат                                   : MPEG-4 Visual
Профиль формата                          : Advanced Simple@L5
Настройки формата                        : BVOP1 / Custom Matrix
Параметр BVOP формата                    : 1
Параметр QPel формата                    : Нет
Параметр GMC формата                     : Без точки перехода
Параметр матрицы формата                 : Выборочная
Идентификатор кодека                     : XVID
Идентификатор кодека/Подсказка           : XviD
Продолжительность                        : 2 ч. 10 м.
Битрейт                                  : 1413 Кбит/сек
Ширина                                   : 720 пикселей
Высота                                   : 304 пикселя
Соотношение сторон                       : 2,35:1
Частота кадров                           : 24,000 кадра/сек
Цветовое пространство                    : YUV
Субдискретизация насыщенности            : 4:2:0
Битовая глубина                          : 8 бит
Тип развёртки                            : Прогрессивная
Метод сжатия                             : С потерями
Бит/(Пиксели*Кадры)                      : 0.269
Размер потока                            : 1,28 Гбайт (88%)
Библиотека кодирования                   : XviD 73

Аудио
Идентификатор                            : 1
Формат                                   : AC-3
Формат/Информация                        : Audio Coding 3
Коммерческое название                    : Dolby Digital
Идентификатор кодека                     : 2000
Продолжительность                        : 2 ч. 10 м.
Вид битрейта                             : Постоянный
Битрейт                                  : 192 Кбит/сек
Каналы                                   : 2 канала
ChannelLayout                            : L R
Частота                                  : 48,0 КГц
Частота кадров                           : 31,250 кадров/сек (1536 SPF)
Битовая глубина                          : 16 бит
Метод сжатия                             : С потерями
Размер потока                            : 179 Мбайт (12%)
Выравнивание                             : Разделение по промежуткам
Продолжительность промежутка             : 42  мс. (1,00 видеокадр)
Время предзагрузки промежутка            : 500  мс.



Скриншоты:
[+] Всего файлов в раздаче - 1:
Курорт для ныряльщиков на Красном море_2019_WEB-DLRip.avi1.47 GB

Похожие раздачи по запросу - курорт:
2019-08-13 U Курорт для ныряльщиков на Красном море / Operation Brothers / The Red Sea Diving Resort (2019) WEB-DLRip-AVC | HDRezka Studio 1.48 GB ↑ 116 ↓ 23
2019-08-12 U Курорт для ныряльщиков на Красном море / The Red Sea Diving Resort (2019) WEB-DL 1080p | HDRezka Studio 4.93 GB ↑ 141 ↓ 71
2019-08-01 U Курорт для ныряльщиков на Красном море / The Red Sea Diving Resort (2019) WEBRip 1080p | Sub 4.77 GB ↑ 56 ↓ 116

Отзывы
Зарегистрируйтесь чтобы добавить комментарий.
Обратная связь
Copyleft ©