↑↓Torrent.by
Поиск
Логин: Регистрация
Пароль: Восстановить пароль
Загрузка...

Кто ты? [01-16 из 16] (2018) WEB-DLRip от GeneralFilm

Скачать kto-ty-01-16-iz-2018-web-dlrip-ot-generalfilm.torrent
U Магнитная ссылка Размер: 8.70 GB Раздают: 214 Качают: 197 Добавлен: 2019-08-12 17:14:36
Кто ты? [01-16 из 16] (2018) WEB-DLRip от GeneralFilm

Год выпуска: 2018
Жанр:  Детектив
Выпущено: Россия, Украина, Кинокомпания «Упс»
Режиссер: Анатолий Матешко
В ролях: Екатерина Кузнецова, Антон Батырев, Ярослав Гуревич, Игорь Пазыч, Мирослав Павличенко, Анастасия Матешко, Олег Примогенов, Ренат Сеттаров

О фильме: История о психотерапевте Инге Штефан, перешедшей в криминальный профайлинг после странной гибели нескольких ее пациентов, а ранее – исчезновения жениха. Параллельно со своим расследованием Инга работает с убойным отделом Главка полиции. В ходе развития сюжета героиня узнает, что за ней много лет следит маньяк, виновный не только в смертях ее пациентов и жениха...

Качество: WEB-DLRip
Видео: XviD build 73, 720x400 (16:9), 25.000 fps, ~ 1570 Kbps (~ 0.217 bit/pixel)
Аудио: 48.0 kHz, AC3, 2/0 ch, 192 kbps
Продолжительность: 16 х ~ 00:44:00
Перевод: Не требуется [Русский]
Cубтитры: нет

Релиз:


[+] MediaInfo
General
Complete name               : D:RazdachiKto.Ty.2018.WEB-DLRip.GeneralFilmKto.Ty.e01.avi
Format                      : AVI
Format/Info                 : Audio Video Interleave
File size                   : 557 MiB
Duration                    : 44 min 2 s
Overall bit rate            : 1 768 kb/s
Writing application         : VirtualDubMod 1.5.10.3 | www.virtualdub-fr.org || (build 2550/release)
Writing library             : VirtualDubMod build 2550/release

Video
ID                          : 0
Format                      : MPEG-4 Visual
Format profile              : Advanced Simple@L5
Format settings             : BVOP1 / Custom Matrix
Format settings, BVOP       : 1
Format settings, QPel       : No
Format settings, GMC        : No warppoints
Format settings, Matrix     : Custom
Codec ID                    : XVID
Codec ID/Hint               : XviD
Duration                    : 44 min 2 s
Bit rate                    : 1 566 kb/s
Width                       : 720 pixels
Height                      : 400 pixels
Display aspect ratio        : 16:9
Frame rate                  : 25.000 FPS
Color space                 : YUV
Chroma subsampling          : 4:2:0
Bit depth                   : 8 bits
Scan type                   : Progressive
Compression mode            : Lossy
Bits/(Pixel*Frame)          : 0.217
Stream size                 : 493 MiB (89%)
Writing library             : XviD 73

Audio
ID                          : 1
Format                      : AC-3
Format/Info                 : Audio Coding 3
Commercial name             : Dolby Digital
Codec ID                    : 2000
Duration                    : 44 min 2 s
Bit rate mode               : Constant
Bit rate                    : 192 kb/s
Channel(s)                  : 2 channels
Channel layout              : L R
Sampling rate               : 48.0 kHz
Frame rate                  : 31.250 FPS (1536 SPF)
Bit depth                   : 16 bits
Compression mode            : Lossy
Stream size                 : 60.5 MiB (11%)
Alignment                   : Split accross interleaves
Interleave, duration        : 40  ms (1.00 video frame)
Interleave, preload duratio : 500  ms
Service kind                : Complete Main



Скриншоты:
[+] Всего файлов в раздаче - 16:
Kto.Ty.e01.avi556.90 MB
Kto.Ty.e02.avi556.79 MB
Kto.Ty.e03.avi557.02 MB
Kto.Ty.e04.avi556.82 MB
Kto.Ty.e05.avi557.18 MB
Kto.Ty.e06.avi557.32 MB
Kto.Ty.e07.avi556.78 MB
Kto.Ty.e08.avi557.02 MB
Kto.Ty.e09.avi557.20 MB
Kto.Ty.e10.avi556.97 MB
Kto.Ty.e11.avi557.08 MB
Kto.Ty.e12.avi556.92 MB
Kto.Ty.e13.avi556.56 MB
Kto.Ty.e14.avi557.12 MB
Kto.Ty.e15.avi556.83 MB
Kto.Ty.e16.avi557.47 MB

Показать еще раздачи по запросу dlrip:
Сегодня U Хранилище / Vault (2019) WEB-DLRip-AVC от Portablius | HDRezka Studio 745.11 MB ↑ 20 ↓ 3
Сегодня U Рассказ служанки / The Handmaid's Tale [S03] (2019) WEB-DLRip | LostFilm 9.26 GB ↑ 8 ↓ 13
Сегодня U Типа крутые легавые / Hot Fuzz (2007) WEB-DLRip | D | Open Matte 1.45 GB ↑ 29 ↓ 3
Вчера U Ма / Ma (2019) WEB-DLRip-AVC | D | iTunes 1К743.55 MB ↑ 58 ↓ 16
Вчера U Игра Ганнибала / Night Hunter / Nomis (2018) WEB-DLRip-AVC | HDRezka Studio 742.52 MB ↑ 80 ↓ 16
Вчера U Свет моей жизни / Light of My Life (2019) WEB-DLRip | HDRezka Studio 1.46 GB ↑ 96 ↓ 36
Вчера U Брексит / Brexit: The Uncivil War (2019) WEB-DLRip | P 1.46 GB ↑ 84 ↓ 42

Отзывы
Зарегистрируйтесь чтобы добавить комментарий.
Обратная связь
Copyleft ©