↑↓Torrent.by
Поиск
Логин: Регистрация
Пароль: Восстановить пароль
Загрузка...

38-я параллель / Taegukgi hwinalrimyeo (2004) BDRip 1080p от NNNB

Скачать 38-ya-parallel-taegukgi-hwinalrimyeo-2004-bdrip-1080p-ot-nnnb.torrent
U Магнитная ссылка Размер: 11.55 GB Раздают: 56 Качают: 33 Добавлен: 2019-08-12 17:14:54
38-я параллель / Taegukgi hwinalrimyeo (2004) BDRip 1080p от NNNB

Название: 38-я параллель
Оригинальное название: Taegukgi hwinalrimyeo
Год выпуска: 2004
Жанр:  Боевик, драма, военный
Выпущено: Корея Южная, Kang Je-Kyu Film Co. Ltd., KD Media, KTB Network, OCN, Prime Venture Capital, SBS, Showbox Entertainment, Venture Plus
Режиссер: Чже Гю Кан
В ролях: Дон Гон Чан, Вон Бин, Юн-чу Ли, Хён Чжин Кон, Ён-ран Ли, Киль Кан Ан, Джин Юнг, Чэ Хён Чон, Мин-хо Чан, Юн Хе Чжо, Мин Сик Чхве, До-Хи Го, Тэк-ха Хван, Дэ-Хун Чон, Ду Хон Чон, Бо Кён Ким, Гён-Хван Ким, Су Ро Ким, Ки-Су Пак, Сон-Мо Ом, Вон Хи Чо, Дон Бин Пак

Перевод: Профессиональный многоголосый

Сюжет фильма
На фоне трагических событий корейской войны 1950-53 годов — самой кровопролитной после окончания Второй мировой, показана судьба одной семьи. Мирное благополучие, счастливые ожидания, мечты и надежды рушатся в единый миг, когда страну охватывает хаос и ужас войны. Под грохот танков, свист пуль и разрывы бомб главный герой фильма Джин-тае пытается спасти своих близких, отправив их на кажущийся спокойным юг Корейского полуострова.

Семья, присоединившаяся к колоннам беженцев, заполнивших дороги страны, проходит сквозь лишения и испытания. Но главное несчастье ждало Джин-тае впереди. Его младшего брата силой забрали в солдаты. Джин-тае отчаянно пытался помешать рекрутерам, но сам оказался в поезде новобранцев. Неопытных, необученных, плохо вооруженных парней немедленно забрасывают на передовую.

Им приказано держать оборону у реки Накдонг и не сдавать позиций. Для верховного командования они — пушечное мясо. Под шквальным огнем у молодых солдат почти нет шансов выжить…

Файл
Качество: BDRip 1080p (исходник Blu-ray)
Видео: 1 892x816, 10514 Кбит/сек, 23.976 кадр/сек, AVC, x264, High@L4.1, 0.284 Бит/[Пиксели*Кадры], 2pass
Аудио : AC3 5.1 48 kHz 640 kbps - Профессиональный многоголосый
Субтитры: Russian
Главы: есть

Продолжительность: 02:28:13

Автор рипа:       Сообщество:


[+] MediaInfo

Format                                   : Matroska
Format version                           : Version 2
File size                                : 11.5 GiB
Duration                                 : 2h 28mn
Overall bit rate                         : 11.2 Mbps
Movie name                               : 38-ja parallel'.(2004).BDRip.1080p.[denis100]
Encoded date                             : UTC 2014-05-01 13:21:23
Writing application                      : mkvmerge v5.8.0 ('No Sleep / Pillow') built on Sep  2 2012 15:37:04
Writing library                          : libebml v1.2.3 + libmatroska v1.3.0

Video
ID                                       : 1
Format                                   : AVC
Format/Info                              : Advanced Video Codec
Format profile                           : High@L4.1
Format settings, CABAC                   : Yes
Format settings, ReFrames                : 5 frames
Codec ID                                 : V_MPEG4/ISO/AVC
Duration                                 : 2h 28mn
Bit rate                                 : 10.5 Mbps
Width                                    : 1 892 pixels
Height                                   : 816 pixels
Display aspect ratio                     : 2.35:1
Frame rate mode                          : Constant
Frame rate                               : 23.976 fps
Color space                              : YUV
Chroma subsampling                       : 4:2:0
Bit depth                                : 8 bits
Scan type                                : Progressive
Bits/(Pixel*Frame)                       : 0.284
Stream size                              : 10.7 GiB (92%)
Title                                    : 38-ja parallel'.(2004).BDRip.1080p.[denis100]
Writing library                          : x264 core 138 r2358 9e941d1
Encoding settings                        : cabac=1 / ref=5 / deblock=1:-3:-3 / analyse=0x3:0x133 / me=umh / subme=11 / psy=1 / psy_rd=1.00:0.15 / mixed_ref=1 / me_range=32 / chroma_me=1 / trellis=2 / 8x8dct=1 / cqm=0 / deadzone=21,11 / fast_pskip=0 / chroma_qp_offset=-3 / threads=6 / lookahead_threads=1 / sliced_threads=0 / nr=0 / decimate=1 / interlaced=0 / bluray_compat=0 / constrained_intra=0 / bframes=8 / b_pyramid=2 / b_adapt=2 / b_bias=0 / direct=3 / weightb=1 / open_gop=0 / weightp=2 / keyint=240 / keyint_min=23 / scenecut=40 / intra_refresh=0 / rc=2pass / mbtree=0 / bitrate=10514 / ratetol=1.0 / qcomp=0.60 / qpmin=0 / qpmax=69 / qpstep=4 / cplxblur=20.0 / qblur=0.5 / ip_ratio=1.40 / pb_ratio=1.30 / aq=2:0.90
Language                                 : English
Default                                  : Yes
Forced                                   : No

Audio
ID                                       : 2
Format                                   : AC-3
Format/Info                              : Audio Coding 3
Mode extension                           : CM (complete main)
Format settings, Endianness              : Big
Codec ID                                 : A_AC3
Duration                                 : 2h 28mn
Bit rate mode                            : Constant
Bit rate                                 : 640 Kbps
Channel(s)                               : 6 channels
Channel positions                        : Front: L C R, Side: L R, LFE
Sampling rate                            : 48.0 KHz
Bit depth                                : 16 bits
Compression mode                         : Lossy
Stream size                              : 678 MiB (6%)
Title                                    : Профессиональный многоголосый
Language                                 : Russian
Default                                  : Yes
Forced                                   : No

Text
ID                                       : 3
Format                                   : UTF-8
Codec ID                                 : S_TEXT/UTF8
Codec ID/Info                            : UTF-8 Plain Text
Title                                    : Russian
Language                                 : Russian
Default                                  : No
Forced                                   : No

Menu
00:00:00.000                             : en:00:00:00.000
00:06:43.945                             : en:00:06:43.945
00:11:37.572                             : en:00:11:37.572
00:14:47.720                             : en:00:14:47.720
00:18:23.686                             : en:00:18:23.686
00:26:09.526                             : en:00:26:09.526
00:32:11.346                             : en:00:32:11.346
00:40:24.255                             : en:00:40:24.255
00:46:03.636                             : en:00:46:03.636
00:55:14.728                             : en:00:55:14.728
00:58:41.059                             : en:00:58:41.059
01:03:17.836                             : en:01:03:17.836
01:08:59.802                             : en:01:08:59.802
01:15:33.154                             : en:01:15:33.154
01:19:51.203                             : en:01:19:51.203
01:23:15.949                             : en:01:23:15.949
01:29:12.055                             : en:01:29:12.055
01:38:39.956                             : en:01:38:39.956
01:42:15.880                             : en:01:42:15.880
01:56:13.383                             : en:01:56:13.383
02:02:15.203                             : en:02:02:15.203
02:09:12.536                             : en:02:09:12.536
02:21:07.918                             : en:02:21:07.918
02:24:44.134                             : en:02:24:44.134




Скриншоты:
[+] Всего файлов в раздаче - 1:

Отзывы
Зарегистрируйтесь чтобы добавить комментарий.
Обратная связь
Copyleft ©