↑↓Torrent.by
Поиск
Логин: Регистрация
Пароль: Восстановить пароль
Загрузка...

Турист / Lost in Florence (2017) WEB-DL 1080p | SDI Media

Скачать turist-lost-in-florence-2017-web-dl-1080p-sdi-media.torrent
U Магнитная ссылка Размер: 3.93 GB Раздают: 31 Качают: 17 Добавлен: 2019-08-13 07:57:54
Турист / Lost in Florence (2017) WEB-DL 1080p | SDI Media

Название: Турист
Оригинальное название: Lost in Florence
Год выпуска: 2017
Жанр:  Мелодрама, приключения
Режиссер: Ивэн Оппенхаймер
В ролях: Бретт Далтон, Стана Катич, Алессандра Мастронарди, Эмили Атак, Роберт Арамайо, Алессандро Прециози, Марко Бонини, Джуси Мерли, Эбби Блейк, Крис Уолш мл., Алиса Фуско

О фильме: Эрик Ламберт — молодой влюбленный парень, который наконец-то решился сделать своей девушке предложение, но получив отказ, главный герой быстро становится заложником своей депрессии. Чтобы избавиться от нее и отвлечься от проблем, он решает не возвращаться в США и пожить у своей сестры во Флоренции, где и знакомится с очаровательной девушкой по имени Стефания, которая дает ему то, чего так хотело его израненное сердце. Но прошлое так просто никого не отпускает.

Страна: Италия, США
Студия: Black Sand Pictures, L'Isola Production, Michael Mailer Films
Продолжительность: 01:38:14
Перевод: Профессиональный (многоголосый закадровый) SDI Media

Файл
Формат: MKV
Качество: WEB-DL 1080p
Видео: MPEG4 AVC Video, 1916x1076, 24 fps, 5149 Kbps
Аудио#1: Russian (AC3, 2 ch, 192 kbps, 16 bits, 48.0 KHz) - SDI Media
Аудио#2: English (AC3, 6 ch, 384 kbps, 16 bits, 48.0 KHz) - Оригинал
Субтитры: Английские (Full, хардсаб на иностранную речь)


[+] Инфо-файл
General
Unique ID                                : 81640446322550108402826040137608543996 (0x3D6B60C637ED9303A7FFE306E8E73EFC)
Complete name                            : G:Lost.in.Florence.2017.WEB-DL.1080p.mkv
Format                                   : Matroska
Format version                           : Version 4 / Version 2
File size                                : 3.93 GiB
Duration                                 : 1 h 38 min
Overall bit rate                         : 5 728 kb/s
Encoded date                             : UTC 2019-08-02 07:37:22
Writing application                      : mkvmerge v20.0.0 ('I Am The Sun') 64-bit
Writing library                          : libebml v1.3.5 + libmatroska v1.4.8

Video
ID                                       : 1
Format                                   : AVC
Format/Info                              : Advanced Video Codec
Format profile                           : High@L4
Format settings                          : CABAC / 4 Ref Frames
Format settings, CABAC                   : Yes
Format settings, RefFrames               : 4 frames
Codec ID                                 : V_MPEG4/ISO/AVC
Duration                                 : 1 h 38 min
Bit rate                                 : 5 149 kb/s
Width                                    : 1 916 pixels
Height                                   : 1 076 pixels
Display aspect ratio                     : 16:9
Frame rate mode                          : Constant
Frame rate                               : 24.000 FPS
Color space                              : YUV
Chroma subsampling                       : 4:2:0
Bit depth                                : 8 bits
Scan type                                : Progressive
Bits/(Pixel*Frame)                       : 0.104
Stream size                              : 3.53 GiB (90%)
Language                                 : English
Default                                  : Yes
Forced                                   : No
Color range                              : Limited
Color primaries                          : BT.709
Transfer characteristics                 : BT.709
Matrix coefficients                      : BT.709

Audio #1
ID                                       : 2
Format                                   : AC-3
Format/Info                              : Audio Coding 3
Codec ID                                 : A_AC3
Duration                                 : 1 h 38 min
Bit rate mode                            : Constant
Bit rate                                 : 192 kb/s
Channel(s)                               : 2 channels
Channel positions                        : Front: L R
Sampling rate                            : 48.0 kHz
Frame rate                               : 31.250 FPS (1536 SPF)
Bit depth                                : 16 bits
Compression mode                         : Lossy
Stream size                              : 135 MiB (3%)
Title                                    : MVO SDI Media
Language                                 : Russian
Service kind                             : Complete Main
Default                                  : Yes
Forced                                   : No

Audio #2
ID                                       : 3
Format                                   : AC-3
Format/Info                              : Audio Coding 3
Codec ID                                 : A_AC3
Duration                                 : 1 h 38 min
Bit rate mode                            : Constant
Bit rate                                 : 384 kb/s
Channel(s)                               : 6 channels
Channel positions                        : Front: L C R, Side: L R, LFE
Sampling rate                            : 48.0 kHz
Frame rate                               : 31.250 FPS (1536 SPF)
Bit depth                                : 16 bits
Compression mode                         : Lossy
Stream size                              : 270 MiB (7%)
Language                                 : English
Service kind                             : Complete Main
Default                                  : No
Forced                                   : No

Text
ID                                       : 4
Format                                   : UTF-8
Codec ID                                 : S_TEXT/UTF8
Codec ID/Info                            : UTF-8 Plain Text
Duration                                 : 1 h 37 min
Bit rate                                 : 35 b/s
Count of elements                        : 935
Stream size                              : 25.1 KiB (0%)
Language                                 : English
Default                                  : No
Forced                                   : No

Menu
00:00:00.000                             : en:1
00:13:49.000                             : en:2
00:25:09.000                             : en:3
00:40:12.000                             : en:4
00:51:36.000                             : en:5
01:09:04.000                             : en:6
01:21:39.000                             : en:7



Скриншоты:
[+] Всего файлов в раздаче - 1:
Lost.in.Florence.2017.WEB-DL.1080p.mkv3.93 GB

Отзывы
Зарегистрируйтесь чтобы добавить комментарий.
Обратная связь
Copyleft ©