↑↓Torrent.by
Поиск
Логин: Регистрация
Пароль: Восстановить пароль
Загрузка...

Транзит / Transit (2012) HDRip-AVC | P

Скачать tranzit-transit-2012-hdrip-avc-p.torrent
U Магнитная ссылка Размер: 743.11 MB Раздают: 20 Качают: 5 Добавлен: 2019-08-13 07:58:24
Транзит / Transit (2012) HDRip-AVC | P

Название: Транзит
Оригинальное название: Transit
Год выхода: 2012
Жанр:  триллер, драма, криминал
Режиссер: Антонио Негрет
В ролях: Джеймс Кэвизел, Диора Бэрд, Элизабет Рём, Джеймс Фрейн, Стерлинг Найт, Хэролд Перрино, Джэйк Черри, Райан Доноху, Робби Джонс

О фильме:
Чтобы перевезти украденные четыре миллиона долларов через дорожный контрольно-пропускной пункт, виновники кровавого ограбления банка используют простую семью, как невольных курьеров. Теперь преступники хотят получить свои деньги назад и не остановятся ни перед чем, чтобы вернуть их.

Выпущено: США
Продолжительность: 01:27:18
Перевод: Профессиональный (многоголосый, закадровый)
Субтитры: русские (надписи), английские

Файл
Формат: MKV
Качество: HDRip-AVC (исх.BDRip 720p [CHD])
Видео: 764x326, x264, 23.976 fps, ~1035 kbps, 0.182 bit/pixel
Аудио: AAC, 2 ch, ~96 kbps
Формат субтитров: softsub (SRT)

***Релиз от: -=DoMiNo=-


[+] M/I
General
Complete name               : Транзит.(2012).HDRip-AVC.[-=DoMiNo=-].mkv
Format                      : Matroska
Format version              : Version 4
File size                   : 743 MiB
Duration                    : 1 h 27 min
Overall bit rate            : 1 182 kb/s
Encoded date                : UTC 2019-08-12 09:46:19
Writing application         : mkvmerge v36.0.0 ('Is That Jazz?') 64-bit
Writing library             : libebml v1.3.9 + libmatroska v1.5.2
Attachments                 : poster.png / poster 2.jpg

Video
ID                          : 1
Format                      : AVC
Format/Info                 : Advanced Video Codec
Format profile              : High@L4.1
Format settings             : CABAC / 12 Ref Frames
Format settings, CABAC      : Yes
Format settings, Reference  : 12 frames
Codec ID                    : V_MPEG4/ISO/AVC
Duration                    : 1 h 27 min
Bit rate                    : 1 085 kb/s
Width                       : 764 pixels
Height                      : 326 pixels
Display aspect ratio        : 2.35:1
Frame rate mode             : Constant
Frame rate                  : 23.976 (24000/1001) FPS
Color space                 : YUV
Chroma subsampling          : 4:2:0
Bit depth                   : 8 bits
Scan type                   : Progressive
Bits/(Pixel*Frame)          : 0.182
Stream size                 : 681 MiB (92%)
Title                       : RIP_BY_-=DoMiNo=-
Writing library             : x264 core 157 r2935 545de2f
Encoding settings           : cabac=1 / ref=12 / deblock=1:-1:-1 / analyse=0x3:0x133 / me=umh / subme=11 / psy=1 / psy_rd=1.00:0.00 / mixed_ref=1 / me_range=32 / chroma_me=1 / trellis=2 / 8x8dct=1 / cqm=0 / deadzone=21,11 / fast_pskip=0 / chroma_qp_offset=-2 / threads=6 / lookahead_threads=1 / sliced_threads=0 / nr=0 / decimate=0 / interlaced=0 / bluray_compat=0 / constrained_intra=0 / bframes=12 / b_pyramid=2 / b_adapt=2 / b_bias=0 / direct=3 / weightb=1 / open_gop=0 / weightp=2 / keyint=250 / keyint_min=23 / scenecut=40 / intra_refresh=0 / rc=2pass / mbtree=0 / bitrate=1085 / ratetol=1.0 / qcomp=0.60 / qpmin=0 / qpmax=69 / qpstep=4 / cplxblur=20.0 / qblur=0.5 / ip_ratio=1.40 / pb_ratio=1.30 / aq=3:0.90
Language                    : English
Default                     : Yes
Forced                      : No

Audio
ID                          : 2
Format                      : AAC LC SBR
Format/Info                 : Advanced Audio Codec Low Complexity with Spectral Band Replication
Commercial name             : HE-AAC
Format settings             : NBC
Codec ID                    : A_AAC-5
Duration                    : 1 h 27 min
Bit rate                    : 96.0 kb/s
Channel(s)                  : 2 channels
Channel layout              : L R
Sampling rate               : 48.0 kHz
Frame rate                  : 23.438 FPS (2048 SPF)
Compression mode            : Lossy
Stream size                 : 60.4 MiB (8%)
Title                       : MVO
Language                    : Russian
Default                     : Yes
Forced                      : No

Text #1
ID                          : 3
Format                      : UTF-8
Codec ID                    : S_TEXT/UTF8
Codec ID/Info               : UTF-8 Plain Text
Duration                    : 34 min 3 s
Bit rate                    : 0 b/s
Count of elements           : 4
Stream size                 : 175 Bytes (0%)
Language                    : Russian
Default                     : No
Forced                      : No

Text #2
ID                          : 4
Format                      : UTF-8
Codec ID                    : S_TEXT/UTF8
Codec ID/Info               : UTF-8 Plain Text
Duration                    : 1 h 21 min
Bit rate                    : 33 b/s
Count of elements           : 530
Stream size                 : 19.9 KiB (0%)
Title                       : Sub-full
Language                    : English
Default                     : No
Forced                      : No

Menu
00:00:00.000                : en:Глава 01
00:07:30.000                : en:Глава 02
00:15:00.000                : en:Глава 03
00:22:30.000                : en:Глава 04
00:30:00.000                : en:Глава 05
00:37:30.000                : en:Глава 06
00:45:00.000                : en:Глава 07
00:52:30.000                : en:Глава 08
01:00:00.000                : en:Глава 09
01:07:30.000                : en:Глава 10
01:15:00.000                : en:Глава 11
01:22:30.000                : en:Глава 12



Скриншоты:
[+] Всего файлов в раздаче - 1:
Транзит.(2012).HDRip-AVC.[-=DoMiNo=-].mkv743.11 MB

Отзывы
Зарегистрируйтесь чтобы добавить комментарий.
Обратная связь
Copyleft ©