↑↓Torrent.by
Поиск
Логин: Регистрация
Пароль: Восстановить пароль
Загрузка...

Аладдин / Aladdin (2019) WEB-DLRip-AVC от ExKinoRay | HDRezka Studio

Скачать aladdin-2019-web-dlrip-avc-ot-exkinoray-hdrezka-studio.torrent
U Магнитная ссылка Размер: 745.71 MB Раздают: 114 Качают: 38 Добавлен: 2019-08-13 14:55:17
Аладдин / Aladdin (2019) WEB-DLRip-AVC от ExKinoRay | HDRezka Studio

Название: Аладдин
Оригинальное название: Aladdin
Год выхода: 2019
Жанр: Мюзикл, фэнтези, мелодрама, комедия, приключения, семейный
Режиссер: Гай Ричи
В ролях: Мена Массуд, Наоми Скотт, Уилл Смит, Билли Магнуссен, Алан Тьюдик, Назим Педрад, Марван Кензари, Нуман Аджар, Фрэнк Уэлкер, Навид Негабан

О фильме:
Беспечный и ловкий Алладин из Аграбы не знает истинного происхождения и старается просто наслаждаться каждым моментом. Его жизненные планы кардинально меняются, когда парень знакомиться с милой принцессой Жасмин, пробуждающей в его сердце нежные чувства. Он не может и не желает бороться с влюбленностью, поэтому решает заполучить сердце любимой девушки став принцем. Одновременно с этим визирь королевства предлагает ловкому вору отправиться в таинственную пещеру и украсть для него волшебную лампу. Алладин соглашается не подозревая, что это приключение полностью изменит его жизнь и подарит лучшего друга.

Страна: США
Студия: The Walt Disney Studios, Lin Pictures,Marc Platt Productions
Продолжительность: 02:07:58
Перевод: Профессиональный (многоголосый, закадровый) | HDRezka Studio

Файл
Формат: MKV
Качество: WEB-DLRip-AVC
Видео: MPEG-4 AVC, 744x312, - 737 Кбит/с
Аудио:  AAC-HE, 2 ch, - 76 Кбит/с
Субтитры: Русские (на песни)


[+] MI
Общее
Уникальный идентификатор : 294539648995200093371180442399665274997 (0xDD9645E213CB60234A4E10650483C075)
Полное имя : D:MOVIESAladdin..2019..WEB-DLRip-AVC.ExKinoRay.mkv
Формат : Matroska
Версия формата : Version 4 / Version 2
Размер файла : 746 Мбайт
Продолжительность : 2 ч. 7 м.
Общий поток : 815 Кбит/сек
Дата кодирования : UTC 2019-08-13 04:44:34
Программа кодирования : mkvmerge v35.0.0 ('All The Love In The World') 64-bit
Библиотека кодирования : libebml v1.3.9 + libmatroska v1.5.2

Видео
Идентификатор : 1
Формат : AVC
Формат/Информация : Advanced Video Codec
Профиль формата : High@L4.1
Параметр CABAC формата : Да
Параметр RefFrames формата : 12 кадров
Идентификатор кодека : V_MPEG4/ISO/AVC
Продолжительность : 2 ч. 7 м.
Битрейт : 737 Кбит/сек
Ширина : 744 пикселя
Высота : 312 пикселей
Соотношение сторон : 2,40:1
Режим частоты кадров : Постоянный
Частота кадров : 23,976 (24000/1001) кадра/сек
Цветовое пространство : YUV
Субдискретизация насыщенности : 4:2:0
Битовая глубина : 8 бит
Тип развёртки : Прогрессивная
Бит/(Пиксели*Кадры) : 0.132
Размер потока : 674 Мбайт (90%)
Библиотека кодирования : x264 core 152 r2851kMod ba24899
Настройки программы : cabac=1 / ref=12 / deblock=1:-3:-2 / analyse=0x3:0x133 / me=umh / subme=10 / psy=1 / fade_compensate=0.00 / psy_rd=1.00:0.11 / mixed_ref=1 / me_range=32 / chroma_me=1 / trellis=2 / 8x8dct=1 / cqm=0 / deadzone=21,11 / fast_pskip=0 / chroma_qp_offset=-3 / threads=6 / lookahead_threads=1 / sliced_threads=0 / nr=0 / decimate=0 / interlaced=0 / bluray_compat=0 / constrained_intra=0 / bframes=12 / b_pyramid=2 / b_adapt=2 / b_bias=0 / direct=3 / weightb=1 / open_gop=0 / weightp=2 / keyint=240 / keyint_min=23 / scenecut=40 / intra_refresh=0 / rc_lookahead=40 / rc=2pass / mbtree=1 / bitrate=737 / ratetol=1.0 / qcomp=0.60 / qpmin=0 / qpmax=69 / qpstep=4 / cplxblur=20.0 / qblur=0.5 / ip_ratio=1.40 / aq=3:1.00
Default : Да
Forced : Нет

Аудио
Идентификатор : 2
Формат : AAC
Формат/Информация : Advanced Audio Codec
Профиль формата : HE-AAC / LC
Идентификатор кодека : A_AAC
Продолжительность : 2 ч. 7 м.
Битрейт : 76,0 Кбит/сек
Каналы : 2 канала
Расположение каналов : Front: L R
Частота : 48,0 КГц / 24,0 КГц
Частота кадров : 23,438 кадра/сек (1024 SPF)
Метод сжатия : С потерями
Задержка видео : 31 мс.
Размер потока : 69,6 Мбайт (9%)
Язык : Russian
Default : Да
Forced : Нет

Текст
Идентификатор : 3
Формат : UTF-8
Идентификатор кодека : S_TEXT/UTF8
Идентификатор кодека/Информация : UTF-8 Plain Text
Продолжительность : 1 ч. 59 м.
Битрейт : 14 бит/сек
ElementCount : 291
Размер потока : 12,4 Кбайт (0%)
Default : Да
Forced : Да



Скриншоты:
[+] Всего файлов в раздаче - 1:
Aladdin..2019..WEB-DLRip-AVC.ExKinoRay.mkv745.71 MB

Показать еще раздачи по запросу аладдин:
Сегодня U Аладдин / Aladdin (2019) WEB-DLRip-AVC от ExKinoRay | HDRezka Studio 1.50 GB ↑ 61 ↓ 25
2019-08-14 U Аладдин / Aladdin (2019) WEBRip 720p | HDRezka Studio 3.45 GB ↑ 125 ↓ 93
2019-08-14 U Аладдин / Aladdin (2019) WEB-DLRip от Scarabey | HDRezka Studio 795.27 MB ↑ 81 ↓ 21
2019-08-14 U Аладдин / Aladdin (2019) WEB-DLRip от Scarabey | HDRezka Studio 1.45 GB ↑ 243 ↓ 65
2019-08-13 U Аладдин / Aladdin (2019) WEBRip-HEVC 720p | HDRezka Studio 3.38 GB ↑ 258 ↓ 116
2019-08-13 U Аладдин / Aladdin (2019) WEB-DLRip-AVC | HDRezka Studio 2.45 GB ↑ 82 ↓ 48
2019-08-13 U Аладдин / Aladdin (2019) WEB-DLRip от MegaPeer | HDRezka Studio 1.46 GB ↑ 252 ↓ 85

Отзывы
Зарегистрируйтесь чтобы добавить комментарий.
Обратная связь
Copyleft ©