↑↓Torrent.by
Поиск
Логин: Регистрация
Пароль: Восстановить пароль
Загрузка...

Самый лучший муж [01-08 из 08] (2018) WEB-DLRip от Files-x

Скачать samyy-luchshiy-muzh-01-08-iz-2018-web-dlrip-ot-files-x.torrent
U Магнитная ссылка Размер: 4.67 GB Раздают: 102 Качают: 45 Добавлен: 2019-08-13 14:55:22
Самый лучший муж [01-08 из 08] (2018) WEB-DLRip от Files-x

Оригинальное название: Самый лучший муж
Год выхода: 2018
Жанр: Остросюжетная мелодрама
Режиссер: Сергей Толкушкин
В ролях: Елена Шилова (II), Алексей Яровенко, Ксения Мишина, Дмитрий Тубольцев, Ирина Мак, Николай Боклан, Павел Тупиков, Мария Хомутова, Владимир Гладкий, Лариса Трояновская

О фильме:
Нина влюблена в своего начальника Глеба, но тот собирается жениться. Глеб делает предложение невесте, но выясняется, что она его обманула и давно замужем. Неужели у Нины появился шанс на счастье? Глеб убеждается, что чуткая, добрая, нежная Нина нужна ему, постепенно их отношения из дружеских перерастают в нечто большее. Кажется, счастье близко – назначен день свадьбы, но на пороге, как призрак из прошлого, появляется бывшая невеста и вручает Глебу их новорожденного ребенка...

Страна: Украина
Студия: Компания IVORY films
Продолжительность: 8 х 00:45:00
Перевод: Не требуется

Файл
Кодек: XviD
Качество: WEB-DLRip
Видео: XviD, ~ 1610 Кбит/с, 720x400, 25 кадр/с
Звук: AC3, 2 ch, 192 Кбит/с

Релиз:


[+] MediaInfo

General
Complete name                    : C:01.Самый лучший муж.(2018).WEB-DLRip.by.Nicodem.Files-x.avi
Format                           : AVI
Format/Info                      : Audio Video Interleave
File size                        : 598 MiB
Duration                         : 46mn 9s
Overall bit rate                 : 1 812 Kbps
Writing application              : VirtualDubMod 1.5.10.3 | www.virtualdub-fr.org || (build 2550/release)
Writing library                  : VirtualDubMod build 2550/release

Video
ID                               : 0
Format                           : MPEG-4 Visual
Format profile                   : Advanced Simple@L5
Format settings, BVOP            : 1
Format settings, QPel            : No
Format settings, GMC             : No warppoints
Format settings, Matrix          : Custom
Codec ID                         : XVID
Codec ID/Hint                    : XviD
Duration                         : 46mn 9s
Bit rate                         : 1 610 Kbps
Width                            : 720 pixels
Height                           : 400 pixels
Display aspect ratio             : 16:9
Frame rate                       : 25.000 fps
Color space                      : YUV
Chroma subsampling               : 4:2:0
Bit depth                        : 8 bits
Scan type                        : Progressive
Compression mode                 : Lossy
Bits/(Pixel*Frame)               : 0.224
Stream size                      : 532 MiB (89%)
Writing library                  : XviD 73

Audio
ID                               : 1
Format                           : AC-3
Format/Info                      : Audio Coding 3
Mode extension                   : CM (complete main)
Codec ID                         : 2000
Duration                         : 46mn 9s
Bit rate mode                    : Constant
Bit rate                         : 192 Kbps
Channel(s)                       : 2 channels
Channel positions                : Front: L R
Sampling rate                    : 48.0 KHz
Bit depth                        : 16 bits
Compression mode                 : Lossy
Stream size                      : 63.4 MiB (11%)
Alignment                        : Split accross interleaves
Interleave, duration             : 40 ms (1.00 video frame)
Interleave, preload duration     : 500 ms



Скриншоты:
[+] Всего файлов в раздаче - 8:
04.Самый лучший муж.(2018).WEB-DLRip.by.Nicodem.Files-x.avi598.01 MB
06.Самый лучший муж.(2018).WEB-DLRip.by.Nicodem.Files-x.avi598.05 MB
05.Самый лучший муж.(2018).WEB-DLRip.by.Nicodem.Files-x.avi598.08 MB
08.Самый лучший муж.(2018).WEB-DLRip.by.Nicodem.Files-x.avi598.18 MB
07.Самый лучший муж.(2018).WEB-DLRip.by.Nicodem.Files-x.avi598.19 MB
02.Самый лучший муж.(2018).WEB-DLRip.by.Nicodem.Files-x.avi598.21 MB
03.Самый лучший муж.(2018).WEB-DLRip.by.Nicodem.Files-x.avi598.21 MB
01.Самый лучший муж.(2018).WEB-DLRip.by.Nicodem.Files-x.avi598.29 MB

Показать еще раздачи по запросу самый:
2019-08-13 U Самый лучший муж [01-08 из 08] (2018) WEB-DL 720p от Files-x 6.76 GB ↑ 21 ↓ 16
2019-07-17 U Кукловод: Самый маленький рейх / Puppet Master: The Littlest Reich (2018) HDRip | HDRezka Studio 1.46 GB ↑ 94 ↓ 34
2019-02-02 U Самый лучший муж [01-08 из 08] (2018) WEBRip от Files-x 4.68 GB ↑ 82 ↓ 80
2019-02-02 U Самый лучший муж [01-08 из 08] (2018) WEBRip-AVC от Files-x 4.50 GB ↑ 137 ↓ 42
2017-10-21 U Adguard Premium 6.2.431.2165 RC [2017.Ml\Rus] - Самый лучший способ убрать рекламу! 52.80 MB ↑ 238 ↓ 8
2014-10-30 U Самый опасный человек / A Most Wanted Man (2014) HDRip от Scarabey | iTunes 1.45 GB ↑ 639 ↓ 80
2013-11-07 U Хатико: Самый верный друг / Hachiko: A Dog's Story (2009) BDRip от HQ-ViDEO 17К1.46 GB ↑ 1032 ↓ 95

Отзывы
Зарегистрируйтесь чтобы добавить комментарий.
Обратная связь
Copyleft ©