↑↓Torrent.by
Поиск
Логин: Регистрация
Пароль: Восстановить пароль
Загрузка...

Экспроприатор [01-10 из 16] (2019) HDTV 1080i от GeneralFilm

Скачать ekspropriator-01-10-iz-16-2019-hdtv-1080i-ot-generalfilm.torrent
U Магнитная ссылка Размер: 24.01 GB Раздают: 63 Качают: 150 Добавлен: 2019-08-13 19:08:09
Экспроприатор [01-10 из 16] (2019) HDTV 1080i от GeneralFilm

Год выпуска: 2019
Жанр:  Криминал, триллер
Выпущено: Россия, Фаворит фильм
Режиссер: Владимир Краснопольский
В ролях: Артём Ткаченко, Артемий Шаффер, Павел Меленчук, Анна Табанина, Алексей Фатеев, Евгений Князев, Юрий Беляев, Соня Кравчук, Татьяна Абрамова, Анна Миклош, Наталья Круглова, Алексей Шевченков, Игорь Филиппов, Михаил Богдасаров, Егор Бакулин, Татьяна Чердынцева, Рамис Ибрагимов, Константин Глушков, Игорь Денисов, Евгения Любимова, Кирилл Продолятченко, Аркадий Коваль, Дмитрий Сутырин, Владимир Богданов, Сергей Русскин, Андрей Мокеев, Ольга Онищенко, Игорь Головин, Пётр Логачёв, Василий Щипицын, Михаил Касапов, Александр Демич (II), Олег Сенченко, Сергей Гамов, Светлана Селезнёва, Николай Иванов, Сергей Жукович, Вячеслав Павлють, Дмитрий Быковский-Ромашов, Олег Ткачёв, Сергей Власов (II)

О фильме: 1962 год. Молодой и удачливый вор Юрка-Барон, провернув очередную квартирную кражу, едет из Ленинграда в Москву, чтобы встретить с человеком из своего далёкого и страшного прошлого. В поезде он вспоминает свою жизнь, которая наверняка сложилась бы по-другому — если б не война, не репрессии и не родство матери с персональным шофёром Ленина, имевшим неосторожность написать крамольную рукопись…

Качество: HDTV (1080i)
Видео: MPEG-TS AVC, ~ 6500  Кбит/с, 1920x1080, 25 кадр/с
Аудио: Русский (AC3, 2 ch, 384 Кбит/с), (MP2, 2 ch, 192 Кбит/с)
Продолжительность: 10 х ~ 00:50:00
Перевод: Не требуется
Субтитры: нет

Релиз:


[+] MediaInfo

Общее
Идентификатор                            : 1 (0x1)
Полное имя                               : D:ЗаписьJekspropriator.HDTV(1080i).GeneralFilm1.Jekspropriator.HDTV(1080i).GeneralFilm.ts
Формат                                   : MPEG-TS
Размер файла                             : 2,29 Гбайт
Продолжительность                        : 50 м. 24 с.
Режим общего битрейта                    : Переменный
Общий поток                              : 6493 Кбит/сек

Видео
Идентификатор                            : 1904 (0x770)
Идентификатор меню                       : 80 (0x50)
Формат                                   : AVC
Формат/Информация                        : Advanced Video Codec
Профиль формата                          : High@L4
Параметр CABAC формата                   : Да
Параметр ReFrames формата                : 3 кадра
Идентификатор кодека                     : 27
Продолжительность                        : 50 м. 24 с.
Битрейт                                  : 5590 Кбит/сек
Ширина                                   : 1920 пикселей
Высота                                   : 1080 пикселей
Соотношение сторон                       : 16:9
Частота кадров                           : 25,000 кадров/сек
Стандарт вещания                         : Component
Цветовое пространство                    : YUV
Субдискретизация насыщенности            : 4:2:0
Битовая глубина                          : 8 бит
Тип развёртки                            : Чересстрочная
Метод сохранения типа развёртки          : Раздельные поля
Порядок развёртки                        : Верхнее поле первое
Бит/(Пиксели*Кадры)                      : 0.108
Размер потока                            : 1,97 Гбайт (86%)
Цветовой диапазон                        : Limited
Основные цвета                           : BT.709
Характеристики трансфера                 : BT.709
Коэффициенты матрицы                     : BT.709

Аудио #1
Идентификатор                            : 2904 (0xB58)
Идентификатор меню                       : 80 (0x50)
Формат                                   : AC-3
Формат/Информация                        : Audio Coding 3
Расширение режима                        : CM (complete main)
Параметр Endianness формата              : Big
Идентификатор кодека                     : 6
Продолжительность                        : 50 м. 24 с.
Вид битрейта                             : Постоянный
Битрейт                                  : 384 Кбит/сек
Каналы                                   : 6 каналов
Расположение каналов                     : Front: L C R, Side: L R, LFE
Частота                                  : 48,0 КГц
Частота кадров                           : 31,250 кадров/сек (1536 spf)
Битовая глубина                          : 16 бит
Метод сжатия                             : С потерями
Задержка видео                           : -120 мс.
Размер потока                            : 138 Мбайт (6%)
Язык                                     : Russian

Аудио #2
Идентификатор                            : 2905 (0xB59)
Идентификатор меню                       : 80 (0x50)
Формат                                   : MPEG Audio
Версия формата                           : Version 1
Профиль формата                          : Layer 2
Идентификатор кодека                     : 3
Продолжительность                        : 50 м. 24 с.
Вид битрейта                             : Постоянный
Битрейт                                  : 192 Кбит/сек
Каналы                                   : 2 канала
Частота                                  : 48,0 КГц
Метод сжатия                             : С потерями
Задержка видео                           : -120 мс.
Размер потока                            : 69,2 Мбайт (3%)
Язык                                     : Russian

Общее
Идентификатор                            : 1 (0x1)
Полное имя                               : D:ЗаписьJekspropriator.HDTV(1080i).GeneralFilm2.Jekspropriator.HDTV(1080i).GeneralFilm.ts
Формат                                   : MPEG-TS
Размер файла                             : 2,83 Гбайт
Продолжительность                        : 49 м. 35 с.
Режим общего битрейта                    : Переменный
Общий поток                              : 8177 Кбит/сек

Видео
Идентификатор                            : 1904 (0x770)
Идентификатор меню                       : 80 (0x50)
Формат                                   : AVC
Формат/Информация                        : Advanced Video Codec
Профиль формата                          : High@L4
Параметр CABAC формата                   : Да
Параметр ReFrames формата                : 3 кадра
Идентификатор кодека                     : 27
Продолжительность                        : 49 м. 35 с.
Битрейт                                  : 7191 Кбит/сек
Ширина                                   : 1920 пикселей
Высота                                   : 1080 пикселей
Соотношение сторон                       : 16:9
Частота кадров                           : 25,000 кадров/сек
Стандарт вещания                         : Component
Цветовое пространство                    : YUV
Субдискретизация насыщенности            : 4:2:0
Битовая глубина                          : 8 бит
Тип развёртки                            : Чересстрочная
Метод сохранения типа развёртки          : Раздельные поля
Порядок развёртки                        : Верхнее поле первое
Бит/(Пиксели*Кадры)                      : 0.139
Размер потока                            : 2,49 Гбайт (88%)
Цветовой диапазон                        : Limited
Основные цвета                           : BT.709
Характеристики трансфера                 : BT.709
Коэффициенты матрицы                     : BT.709

Аудио #1
Идентификатор                            : 2932 (0xB74)
Идентификатор меню                       : 80 (0x50)
Формат                                   : AC-3
Формат/Информация                        : Audio Coding 3
Расширение режима                        : CM (complete main)
Параметр Endianness формата              : Big
Идентификатор кодека                     : 6
Продолжительность                        : 49 м. 35 с.
Вид битрейта                             : Постоянный
Битрейт                                  : 384 Кбит/сек
Каналы                                   : 6 каналов
Расположение каналов                     : Front: L C R, Side: L R, LFE
Частота                                  : 48,0 КГц
Частота кадров                           : 31,250 кадров/сек (1536 spf)
Битовая глубина                          : 16 бит
Метод сжатия                             : С потерями
Задержка видео                           : -120 мс.
Размер потока                            : 136 Мбайт (5%)
Язык                                     : Russian

Аудио #2
Идентификатор                            : 2933 (0xB75)
Идентификатор меню                       : 80 (0x50)
Формат                                   : MPEG Audio
Версия формата                           : Version 1
Профиль формата                          : Layer 2
Идентификатор кодека                     : 3
Продолжительность                        : 49 м. 35 с.
Вид битрейта                             : Постоянный
Битрейт                                  : 192 Кбит/сек
Каналы                                   : 2 канала
Частота                                  : 48,0 КГц
Метод сжатия                             : С потерями
Задержка видео                           : -120 мс.
Размер потока                            : 68,1 Мбайт (2%)
Язык                                     : Russian




Скриншоты:
[+] Всего файлов в раздаче - 10:
01.Jekspropriator.HDTV(1080i).GeneralFilm.ts2.29 GB
02.Jekspropriator.HDTV(1080i).GeneralFilm.ts2.83 GB
03.Jekspropriator.HDTV(1080i).GeneralFilm.ts2.18 GB
04.Jekspropriator.HDTV(1080i).GeneralFilm.ts2.26 GB
05.Jekspropriator.HDTV(1080i).GeneralFilm.ts2.64 GB
06.Jekspropriator.HDTV(1080i).GeneralFilm.ts2.29 GB
07.Jekspropriator.HDTV(1080i).GeneralFilm.ts2.39 GB
08.Jekspropriator.HDTV(1080i).GeneralFilm.ts2.55 GB
09.Jekspropriator.HDTV(1080i).GeneralFilm.ts2.21 GB
10.Jekspropriator.HDTV(1080i).GeneralFilm.ts2.38 GB

Показать еще раздачи по запросу экспроприатор:
2019-08-18 U Экспроприатор [01-16 из 16] (2019) HDTVRip от Generalfilm | КПК 2.93 GB ↑ 71 ↓ 86
2019-08-17 U Экспроприатор [01-16 из 16] (2019) WEBRip от GeneralFilm 8.71 GB ↑ 60 ↓ 94
2019-08-16 U Экспроприатор [01-16 из 16] (2019) WEBRip от Files-x 10.12 GB ↑ 26 ↓ 101
2019-08-16 U Экспроприатор [01-16 из 16] (2019) HDTVRip-AVC от Files-x 12.06 GB ↑ 84 ↓ 163
2019-08-16 U Экспроприатор [01-16 из 16] (2019) HDTVRip 720p от GeneralFilm 20.31 GB ↑ 149 ↓ 288
2019-08-16 U Экспроприатор [01-16 из 16] (2019) HDTVRip от GeneralFilm 9.82 GB ↑ 105 ↓ 180
2019-08-16 U Экспроприатор [01-16 из 16] (2019) SATRip 10.18 GB ↑ 348 ↓ 608

Отзывы
Зарегистрируйтесь чтобы добавить комментарий.
Обратная связь
Copyleft ©