↑↓Torrent.by
Поиск
Логин: Регистрация
Пароль: Восстановить пароль
Загрузка...

Годзилла 2: Король монстров / Godzilla: King of the Monsters (2019) WEB-DL 1080p от селезень | D, P | iTunes

Скачать godzilla-2-korol-monstrov-king-of-the-monsters-2019-web-dl-1080p-ot-selezen-d-p-itunes.torrent
U Магнитная ссылка Размер: 9.58 GB Раздают: 827 Качают: 432 Добавлен: 2019-08-14 11:57:44
Годзилла 2: Король монстров / Godzilla: King of the Monsters (2019) WEB-DL 1080p от селезень | D, P | iTunes

Название: Годзилла 2: Король монстров
Оригинальное название: Godzilla: King of the Monsters
Год выхода: 2019
Жанр: Фантастика, фэнтези, боевик, приключения
Режиссер: Майкл Догерти
В ролях: Кайл Чандлер, Вера Фармига, Милли Бобби Браун, Кэн Ватанабэ, Цзыи Чжан, Брэдли Уитфорд, Салли Хокинс, Чарльз Дэнс, Томас Миддлдитч, Аиша Хайндс, О`Ши Джексон мл., Дэвид Стрэтэйрн, Энтони Рамос, Элизабет Ладлоу, Джонатан Ховард, Си Си Эйч Паундер, Джо Мортон, Тайлер Крумли, Келли Гарнер

О фильме: История рассказывает о героических усилиях криптозоологического агентства «Монарх» по сдерживанию гигантских монстров. В этот раз против могучего Годзиллы выступают Мотра, Родан и ультимативный кайдзю - трёхголовый монстр Кинг Гидора. Когда эти древние суперхищники, со временем превратившиеся в полузабытые мифы, восстают снова, чтобы сойтись в схватке, человечеству остаётся отойти в сторонку и постараться не погибнуть.

Страна: США, Япония
Студия: Warner Bros., Legendary Entertainment, Toho Company
Продолжительность: 02:11:40
Перевод(ы):
#1: Дублированный | iTunes
#2: Профессиональный многоголосый | HDRezka Studio

Качество: WEB-DL 1080p
Видео: MPEG-4 AVC, 1920x800, 9199 Kbit/s, 23.976 fps
Звук:
Аудио #01: 48 kHz, AC3, 5.1, 384 Kbps | iTunes | RUS |
Аудио #02: 48 kHz, AC3, 2.0, 192 Kbps | HDRezka Studio | RUS |
Аудио #03: 48 kHz, E-AC3, 5.1, 640 Kbps | Оригинал |  ENG |
Субтитры: Русские (Forced, full), английские

Релиз:


[+] MI
General
Unique ID                   : 205060673299685058970850727190627790980 (0x9A453FC5D4A9C61AFC195161144AB084)
Complete name               : D:Video111Godzilla.King.of.the.Monsters.2019.AMZN.WEB-DL.1080p.seleZen.mkv
Format                      : Matroska
Format version              : Version 4
File size                   : 9.58 GiB
Duration                    : 2 h 11 min
Overall bit rate            : 10.4 Mb/s
Movie name                  : Godzilla: King of the Monsters 2019 from селезень
Encoded date                : UTC 2019-08-13 20:14:47
Writing application         : mkvmerge v22.0.0 ('At The End Of The World') 64-bit
Writing library             : libebml v1.3.5 + libmatroska v1.4.8

Video
ID                          : 1
Format                      : AVC
Format/Info                 : Advanced Video Codec
Format profile              : High@L4
Format settings             : CABAC / 4 Ref Frames
Format settings, CABAC      : Yes
Format settings, Reference  : 4 frames
Codec ID                    : V_MPEG4/ISO/AVC
Duration                    : 2 h 11 min
Bit rate mode               : Constant
Bit rate                    : 9 199 kb/s
Nominal bit rate            : 10 000 kb/s
Width                       : 1 920 pixels
Height                      : 800 pixels
Display aspect ratio        : 2.40:1
Frame rate mode             : Constant
Frame rate                  : 23.976 (24000/1001) FPS
Color space                 : YUV
Chroma subsampling          : 4:2:0
Bit depth                   : 8 bits
Scan type                   : Progressive
Bits/(Pixel*Frame)          : 0.250
Stream size                 : 8.46 GiB (88%)
Language                    : English
Default                     : Yes
Forced                      : No
Color range                 : Limited
Color primaries             : BT.709
Transfer characteristics    : BT.709
Matrix coefficients         : BT.709

Audio #1
ID                          : 2
Format                      : AC-3
Format/Info                 : Audio Coding 3
Commercial name             : Dolby Digital
Codec ID                    : A_AC3
Duration                    : 2 h 11 min
Bit rate mode               : Constant
Bit rate                    : 384 kb/s
Channel(s)                  : 6 channels
Channel layout              : L R C LFE Ls Rs
Sampling rate               : 48.0 kHz
Frame rate                  : 31.250 FPS (1536 SPF)
Bit depth                   : 16 bits
Compression mode            : Lossy
Stream size                 : 362 MiB (4%)
Title                       : iTunes
Language                    : Russian
Service kind                : Complete Main
Default                     : Yes
Forced                      : Yes

Audio #2
ID                          : 3
Format                      : AC-3
Format/Info                 : Audio Coding 3
Commercial name             : Dolby Digital
Codec ID                    : A_AC3
Duration                    : 2 h 11 min
Bit rate mode               : Constant
Bit rate                    : 192 kb/s
Channel(s)                  : 2 channels
Channel layout              : L R
Sampling rate               : 48.0 kHz
Frame rate                  : 31.250 FPS (1536 SPF)
Bit depth                   : 16 bits
Compression mode            : Lossy
Stream size                 : 181 MiB (2%)
Title                       : MVO [HDRezka Studio]
Language                    : Russian
Service kind                : Complete Main
Default                     : No
Forced                      : No

Audio #3
ID                          : 4
Format                      : E-AC-3
Format/Info                 : Enhanced AC-3
Commercial name             : Dolby Digital Plus
Codec ID                    : A_EAC3
Duration                    : 2 h 11 min
Bit rate mode               : Constant
Bit rate                    : 640 kb/s
Channel(s)                  : 6 channels
Channel layout              : L R C LFE Ls Rs
Sampling rate               : 48.0 kHz
Frame rate                  : 31.250 FPS (1536 SPF)
Compression mode            : Lossy
Stream size                 : 603 MiB (6%)
Title                       : Original
Language                    : English
Service kind                : Complete Main
Default                     : No
Forced                      : No

Text #1
ID                          : 5
Format                      : UTF-8
Codec ID                    : S_TEXT/UTF8
Codec ID/Info               : UTF-8 Plain Text
Duration                    : 2 h 8 min
Bit rate                    : 1 b/s
Count of elements           : 24
Stream size                 : 1.42 KiB (0%)
Title                       : Forced
Language                    : Russian
Default                     : Yes
Forced                      : Yes

Text #2
ID                          : 6
Format                      : UTF-8
Codec ID                    : S_TEXT/UTF8
Codec ID/Info               : UTF-8 Plain Text
Duration                    : 2 h 10 min
Bit rate                    : 77 b/s
Count of elements           : 1372
Stream size                 : 74.2 KiB (0%)
Title                       : Full
Language                    : Russian
Default                     : No
Forced                      : No

Text #3
ID                          : 7
Format                      : UTF-8
Codec ID                    : S_TEXT/UTF8
Codec ID/Info               : UTF-8 Plain Text
Duration                    : 2 h 10 min
Bit rate                    : 42 b/s
Count of elements           : 1482
Stream size                 : 40.9 KiB (0%)
Title                       : Full
Language                    : English
Default                     : No
Forced                      : No

Text #4
ID                          : 8
Format                      : UTF-8
Codec ID                    : S_TEXT/UTF8
Codec ID/Info               : UTF-8 Plain Text
Duration                    : 2 h 11 min
Bit rate                    : 51 b/s
Count of elements           : 1857
Stream size                 : 49.7 KiB (0%)
Title                       : SDH
Language                    : English
Default                     : No
Forced                      : No



Скриншоты:
[+] Всего файлов в раздаче - 1:
Godzilla.King.of.the.Monsters.2019.AMZN.WEB-DL.1080p.seleZen.mkv9.58 GB

Показать еще раздачи по запросу годзилла:
Сегодня U Годзилла 2: Король монстров / Godzilla: King of the Monsters (2019) BDRip-AVC | D | iTunes 3.66 GB ↑ 49 ↓ 26
Сегодня U Годзилла 2: Король монстров / Godzilla: King of the Monsters (2019) BDRip 1080p от qqss44 & MegaPeer | iTunes 7.52 GB ↑ 79 ↓ 38
Вчера U Годзилла 2: Король монстров / Godzilla: King of the Monsters (2019) UHD BDRemux 2160p от селезень | 4K | HDR | D, P | iTunes 56.56 GB ↑ 56 ↓ 109
Вчера U Годзилла 2: Король монстров / Godzilla: King of the Monsters (2019) BDRip 720p от селезень | D, P | iTunes 5.25 GB ↑ 67 ↓ 58
Вчера U Годзилла 2: Король монстров / Godzilla: King of the Monsters (2019) BDRemux 1080p от селезень | D, P | iTunes 24.84 GB ↑ 31 ↓ 28
2019-08-18 U Годзилла 2: Король монстров / Godzilla: King of the Monsters (2019) BDRip от MegaPeer | iTunes 2.12 GB ↑ 441 ↓ 28
2019-08-18 U Годзилла 2: Король монстров / Godzilla: King of the Monsters (2019) BDRip от MegaPeer | iTunes 1.46 GB ↑ 1903 ↓ 118

Отзывы
Зарегистрируйтесь чтобы добавить комментарий.
Обратная связь
Copyleft ©