↑↓Torrent.by
Поиск
Логин: Регистрация
Пароль: Восстановить пароль
Загрузка...

Годзилла 2: Король монстров / Godzilla: King of the Monsters (2019) WEB-DL 720p | D, P | iTunes

Скачать godzilla-2-korol-monstrov-king-of-the-monsters-2019-web-dl-720p-d-p-itunes.torrent
U Магнитная ссылка Размер: 5.78 GB Раздают: 71 Качают: 72 Добавлен: 2019-08-14 11:58:45
Годзилла 2: Король монстров / Godzilla: King of the Monsters (2019) WEB-DL 720p | D, P | iTunes

Название: Годзилла 2: Король монстров
Оригинальное название: Godzilla: King of the Monsters
Год выхода: 2019
Жанр:  фантастика, фэнтези, боевик, приключения
Режиссер: Майкл Догерти
В ролях: Кайл Чандлер, Вера Фармига, Милли Бобби Браун, Кэн Ватанабэ, Цзыи Чжан, Брэдли Уитфорд, Салли Хокинс, Чарльз Дэнс, Томас Миддлдитч, Аиша Хайндс, О`Ши Джексон мл., Дэвид Стрэтэйрн, Энтони Рамос, Элизабет Ладлоу, Джонатан Ховард, Си Си Эйч Паундер, Джо Мортон, Тайлер Крумли, Келли Гарнер

О фильме:
История рассказывает о героических усилиях криптозоологического агентства «Монарх» по сдерживанию гигантских монстров. В этот раз против могучего Годзиллы выступают Мотра, Родан и ультимативный кайдзю - трёхголовый монстр Кинг Гидора. Когда эти древние суперхищники, со временем превратившиеся в полузабытые мифы, восстают снова, чтобы сойтись в схватке, человечеству остаётся отойти в сторонку и постараться не погибнуть.

Страна: США, Япония
Студия: Warner Bros., Legendary Entertainment, Toho Company
Продолжительность: 02:11:39
Перевод(ы):
#1: Дублированный | iTunes
#2: Профессиональный многоголосый | HDRezka Studio
Субтитры: Русские (Форс., Полные), Украинские (Форс), Английский (Полные, SDH),

Файл
Качество: WEB-DL 720p (Amazon)
Видео: AVC/H.264, 1248x520 (2.40:1), ~4829 Kbps
Аудио 1: AC3, 6 ch, 384 Kbps | Русский (DUB, iTunes)
Аудио 2: AC3, 2 ch, 192 Kbps | Русский (MVO, HDRezka Studio)
Аудио 3: AAC , 2 ch, 160 Kbps | Украинский (DUB, iTunes)
Аудио 4: Е-AC3, 6 ch, 640 Kbps | Английский (Оригинал)


[+] M/I
General
Format                                   : Matroska
Format version                           : Version 4
File size                                : 5.78 GiB
Duration                                 : 2 h 11 min
Overall bit rate                         : 6 287 kb/s
Encoded date                             : UTC 2019-08-14 03:55:32
Writing application                      : mkvmerge v34.0.0 ('Sight and Seen') 64-bit
Writing library                          : libebml v1.3.7 + libmatroska v1.5.0

Video
ID                                       : 1
Format                                   : AVC
Format/Info                              : Advanced Video Codec
Format profile                           : High@L3.1
Format settings                          : CABAC / 4 Ref Frames
Format settings, CABAC                   : Yes
Format settings, Reference frames        : 4 frames
Codec ID                                 : V_MPEG4/ISO/AVC
Duration                                 : 2 h 11 min
Bit rate mode                            : Constant
Nominal bit rate                         : 6 000 kb/s
Width                                    : 1 248 pixels
Height                                   : 520 pixels
Display aspect ratio                     : 2.40:1
Frame rate mode                          : Constant
Frame rate                               : 23.976 (24000/1001) FPS
Color space                              : YUV
Chroma subsampling                       : 4:2:0
Bit depth                                : 8 bits
Scan type                                : Progressive
Bits/(Pixel*Frame)                       : 0.386
Title                                    : Godzilla: King of the Monsters 2019 720p WEB-DL DD+5.1 H.264-NTG
Language                                 : English
Default                                  : Yes
Forced                                   : No
Color range                              : Limited
Color primaries                          : BT.709
Transfer characteristics                 : BT.709
Matrix coefficients                      : BT.709

Audio #1
ID                                       : 2
Format                                   : AC-3
Format/Info                              : Audio Coding 3
Commercial name                          : Dolby Digital
Codec ID                                 : A_AC3
Duration                                 : 2 h 11 min
Bit rate mode                            : Constant
Bit rate                                 : 384 kb/s
Channel(s)                               : 6 channels
Channel layout                           : L R C LFE Ls Rs
Sampling rate                            : 48.0 kHz
Frame rate                               : 31.250 FPS (1536 SPF)
Bit depth                                : 16 bits
Compression mode                         : Lossy
Stream size                              : 362 MiB (6%)
Title                                    : Дублированный iTunes
Language                                 : Russian
Service kind                             : Complete Main
Default                                  : Yes
Forced                                   : No

Audio #2
ID                                       : 3
Format                                   : AC-3
Format/Info                              : Audio Coding 3
Commercial name                          : Dolby Digital
Codec ID                                 : A_AC3
Duration                                 : 2 h 11 min
Bit rate mode                            : Constant
Bit rate                                 : 192 kb/s
Channel(s)                               : 2 channels
Channel layout                           : L R
Sampling rate                            : 48.0 kHz
Frame rate                               : 31.250 FPS (1536 SPF)
Bit depth                                : 16 bits
Compression mode                         : Lossy
Stream size                              : 181 MiB (3%)
Title                                    : MVO - HDRezka Studio
Language                                 : Russian
Service kind                             : Complete Main
Default                                  : No
Forced                                   : No

Audio #3
ID                                       : 4
Format                                   : AAC LC
Format/Info                              : Advanced Audio Codec Low Complexity
Codec ID                                 : A_AAC-2
Duration                                 : 2 h 11 min
Channel(s)                               : 2 channels
Channel layout                           : L R
Sampling rate                            : 44.1 kHz
Frame rate                               : 43.066 FPS (1024 SPF)
Compression mode                         : Lossy
Title                                    : Дублированный iTunes
Language                                 : Ukrainian
Default                                  : No
Forced                                   : No

Audio #4
ID                                       : 5
Format                                   : E-AC-3
Format/Info                              : Enhanced AC-3
Commercial name                          : Dolby Digital Plus
Codec ID                                 : A_EAC3
Duration                                 : 2 h 11 min
Bit rate mode                            : Constant
Bit rate                                 : 640 kb/s
Channel(s)                               : 6 channels
Channel layout                           : L R C LFE Ls Rs
Sampling rate                            : 48.0 kHz
Frame rate                               : 31.250 FPS (1536 SPF)
Compression mode                         : Lossy
Stream size                              : 603 MiB (10%)
Title                                    : Оригинал
Language                                 : English
Service kind                             : Complete Main
Default                                  : No
Forced                                   : No

Text #1
ID                                       : 6
Format                                   : UTF-8
Codec ID                                 : S_TEXT/UTF8
Codec ID/Info                            : UTF-8 Plain Text
Title                                    : Форс.
Language                                 : Russian
Default                                  : Yes
Forced                                   : No

Text #2
ID                                       : 7
Format                                   : UTF-8
Codec ID                                 : S_TEXT/UTF8
Codec ID/Info                            : UTF-8 Plain Text
Title                                    : Полные
Language                                 : Russian
Default                                  : No
Forced                                   : No

Text #3
ID                                       : 8
Format                                   : UTF-8
Codec ID                                 : S_TEXT/UTF8
Codec ID/Info                            : UTF-8 Plain Text
Title                                    : Форс.
Language                                 : Ukrainian
Default                                  : No
Forced                                   : No

Text #4
ID                                       : 9
Format                                   : UTF-8
Codec ID                                 : S_TEXT/UTF8
Codec ID/Info                            : UTF-8 Plain Text
Language                                 : English
Default                                  : No
Forced                                   : No

Text #5
ID                                       : 10
Format                                   : UTF-8
Codec ID                                 : S_TEXT/UTF8
Codec ID/Info                            : UTF-8 Plain Text
Title                                    : SDH
Language                                 : English
Default                                  : No
Forced                                   : No

Menu
00:00:00.000                             : en:1
00:10:50.000                             : en:2
00:18:02.000                             : en:3
00:30:22.000                             : en:4
00:45:12.000                             : en:5
00:54:04.000                             : en:6
01:05:34.000                             : en:7
01:09:24.000                             : en:8
01:19:23.000                             : en:9
01:29:57.000                             : en:10
01:38:27.000                             : en:11
01:49:49.000                             : en:12
01:59:18.000                             : en:13



Скриншоты:
[+] Всего файлов в раздаче - 1:
Годзилла 2- Король монстров_Godzilla-King of the Monsters.2019.WEB-DL.720p.NNMClub.mkv5.78 GB

Показать еще раздачи по запросу годзилла:
Сегодня U Годзилла 2: Король монстров / Godzilla: King of the Monsters (2019) BDRip-AVC | D | iTunes 3.66 GB ↑ 49 ↓ 26
Сегодня U Годзилла 2: Король монстров / Godzilla: King of the Monsters (2019) BDRip 1080p от qqss44 & MegaPeer | iTunes 7.52 GB ↑ 79 ↓ 38
Вчера U Годзилла 2: Король монстров / Godzilla: King of the Monsters (2019) UHD BDRemux 2160p от селезень | 4K | HDR | D, P | iTunes 56.56 GB ↑ 56 ↓ 109
Вчера U Годзилла 2: Король монстров / Godzilla: King of the Monsters (2019) BDRip 720p от селезень | D, P | iTunes 5.25 GB ↑ 67 ↓ 58
Вчера U Годзилла 2: Король монстров / Godzilla: King of the Monsters (2019) BDRemux 1080p от селезень | D, P | iTunes 24.84 GB ↑ 31 ↓ 28
2019-08-18 U Годзилла 2: Король монстров / Godzilla: King of the Monsters (2019) BDRip от MegaPeer | iTunes 2.12 GB ↑ 441 ↓ 28
2019-08-18 U Годзилла 2: Король монстров / Godzilla: King of the Monsters (2019) BDRip от MegaPeer | iTunes 1.46 GB ↑ 1903 ↓ 118

Отзывы
Зарегистрируйтесь чтобы добавить комментарий.
Обратная связь
Copyleft ©