↑↓torrent.by
Поиск
Логин: Регистрация
Пароль: Восстановить пароль

Черный бизнес (1965) SATRip-AVC от New-Team

Скачать chernyy-biznes-1965-satrip-avc-ot-new-team.torrent
U Магнитная ссылка Размер: 1.09 GB Раздают: 65 Качают: 6 Добавлен: 2021-09-11 21:15:07
Черный бизнес (1965) SATRip-AVC от New-Team

Страна: СССР
Производство: Мосфильм

Жанр:  детектив, шпионский фильм
Год выпуска: 1965
Продолжительность: 01:36:23

Перевод: не требуется
Оригинальная аудиодорожка: русский
Cубтитры: нет

Режиссер: Василий Журавлёв

В ролях:
Иван Переверзев, Геннадий Юдин, Юрий Саранцев, Маргарита Володина, Станислав Михин, Аркадий Толбузин, Виктор Кулаков, Муза Крепкогорская, Феликс Яворский, Павел Винник, Марианна Стриженова, Константин Худяков, Виктор Колпаков, Александр Смирнов, Елена Максимова, Григорий Шпигель...
Об актёрах подробней

Описание:
В качестве туристки в СССР приезжает опытная разведчица. Сотрудникам Комитета госбезопасности удается выяснить истинную причину визита мисс Ластер, выявить все ее многочисленные связи с агентами иностранной разведки, разоблачить и ликвидировать преступников.



[+] MediaInfo

Общее
Полное имя                               : Чёрный бизнес.1965.SATRip-AVC_[New-team]_by_AVP_Studio.mkv
Формат                                   : Matroska
Версия формата                           : Version 2
Размер файла                             : 1,09 Гбайт
Продолжительность                        : 1 ч. 36 м.
Общий поток                              : 1 619 Кбит/сек
Дата кодирования                         : UTC 2021-09-08 11:39:13
Программа кодирования                    : mkvmerge v6.9.1 ('Blue Panther') 32bit built on Apr 18 2014 18:15:44
Библиотека кодирования                   : libebml v1.3.0 + libmatroska v1.4.1

Видео
Идентификатор                            : 1
Формат                                   : AVC
Формат/Информация                        : Advanced Video Codec
Профиль формата                          : High@L4.1
Настройки формата                        : CABAC / 10 Ref Frames
Параметр CABAC формата                   : Да
Параметр RefFrames формата               : 10 кадров
Идентификатор кодека                     : V_MPEG4/ISO/AVC
Продолжительность                        : 1 ч. 36 м.
Битрейт                                  : 1 425 Кбит/сек
Ширина                                   : 704 пикселя
Высота                                   : 566 пикселей
Соотношение сторон                       : 4:3
Режим частоты кадров                     : Постоянный
Частота кадров                           : 25,000 кадров/сек
Цветовое пространство                    : YUV
Субдискретизация насыщенности            : 4:2:0
Битовая глубина                          : 8 бит
Тип развёртки                            : Прогрессивная
Бит/(Пиксели*Кадры)                      : 0.143
Размер потока                            : 961 Мбайт (86%)
Библиотека кодирования                   : x264 core 160 r3000 33f9e14
Настройки программы                      : cabac=1 / ref=10 / deblock=1:-2:-1 / analyse=0x3:0x113 / me=umh / subme=10 / psy=1 / psy_rd=1.00:0.00 / mixed_ref=1 / me_range=32 / chroma_me=1 / trellis=2 / 8x8dct=1 / cqm=0 / deadzone=21,11 / fast_pskip=1 / chroma_qp_offset=-2 / threads=6 / lookahead_threads=1 / sliced_threads=0 / nr=0 / decimate=0 / interlaced=0 / bluray_compat=0 / constrained_intra=0 / bframes=8 / b_pyramid=2 / b_adapt=2 / b_bias=0 / direct=3 / weightb=1 / open_gop=0 / weightp=2 / keyint=250 / keyint_min=25 / scenecut=40 / intra_refresh=0 / rc=2pass / mbtree=0 / bitrate=1425 / ratetol=1.0 / qcomp=0.60 / qpmin=0 / qpmax=69 / qpstep=4 / cplxblur=20.0 / qblur=0.5 / ip_ratio=1.40 / pb_ratio=1.30 / aq=1:1.00
Default                                  : Да
Forced                                   : Нет

Аудио
Идентификатор                            : 2
Формат                                   : AC-3
Формат/Информация                        : Audio Coding 3
Коммерческое название                    : Dolby Digital
Идентификатор кодека                     : A_AC3
Продолжительность                        : 1 ч. 36 м.
Вид битрейта                             : Постоянный
Битрейт                                  : 192 Кбит/сек
Каналы                                   : 2 канала
Channel layout                           : L R
Частота                                  : 48,0 КГц
Частота кадров                           : 31,250 кадров/сек (1536 SPF)
Метод сжатия                             : С потерями
Размер потока                            : 132 Мбайт (12%)
Default                                  : Да
Forced                                   : Нет



Скриншоты:
[+] Всего файлов в раздаче - 1:
Чёрный бизнес.1965.SATRip-AVC_[New-team]_by_AVP_Studio.mkv1.09 GB

Похожие раздачи по запросу - черный:
2021-09-01 U Черный котенок (1965) WEB-DLRip-AVC от New-Team 372.60 MB ↑ 13 ↓ 9
2021-08-26 U Чёрный снег [S01-02] (2007-2008) WEBRip-AVC 5.16 GB ↑ 7 ↓ 4
2021-08-22 U Чёрный пёс / Black Dog (1998) HDRip-AVC от ImperiaFilm | P 742.17 MB ↑ 2 ↓ 1
2021-08-12 U Чёрный и синий / Black and Blue (2019) BDRip-HEVC 1080p от HEVC-CLUB | Лицензия 8.81 GB ↑ 2 ↓ 4
2021-06-25 U Чёрный список / The Blacklist [S08] (2020) WEBRip от Kerob | L 9.17 GB ↑ 46 ↓ 19

Отзывы
Зарегистрируйтесь чтобы добавить комментарий.
Загрузите программу
  byTorrent
Обратная связь
Copyleft ©