↑↓Torrent.by
Поиск
Логин: Регистрация
Пароль: Восстановить пароль

Мстители: Финал / Avengers: Endgame (2019) WEBRip 1080p | D, P | Open Matte | Локализованная версия

Скачать mstiteli-final-avengers-endgame-2019-webrip-1080p-d-p-open-matte-lokalizovannaya-versiya.torrent
U Магнитная ссылка Размер: 6.84 GB Раздают: 155 Качают: 75 Добавлен: 2019-08-16 21:08:18
Мстители: Финал / Avengers: Endgame (2019) WEBRip 1080p | D, P | Open Matte | Локализованная версия

Название: Мстители: Финал
Оригинальное название: Avengers: Endgame
Год выхода: 2019
Жанр: Фантастика, Боевик, Приключения
Режиссер: Энтони Руссо, Джо Руссо
В ролях: Роберт Дауни мл., Крис Эванс, Марк Руффало, Крис Хемсворт, Скарлетт Йоханссон, Джереми Реннер, Дон Чидл, Пол Радд, Бри Ларсон, Карен Гиллан

О фильме:
Оставшиеся в живых члены команды Мстителей и их союзники должны разработать новый план, который поможет противостоять разрушительным действиям могущественного титана Таноса. После наиболее масштабной и трагической битвы в истории они не могут допустить ошибку.

Страна: США
Студия: Walt Disney Pictures, Marvel Studios
Продолжительность: 03:01:47
Перевод: Дублированный (iTunes), Профессиональный многоголосый (HDRezka Studio)

Файл
Качество: WEBRip 1080p - Kinopoisk
Формат: MKV
Видео: 1920x1080, 23.976 fps, MPEG-4 AVC, 4112 kbps avg
Аудио 1: Russian: 48 kHz, AC3, 6 ch, ~384 kbps avg
Аудио 1: Russian: 48 kHz, AC3, 2 ch, ~256 kbps avg
Аудио 3: English: 48 kHz, AC3, 6 ch, ~640 kbps avg
Субтитры: Русские (forced (hardsub), full), английские (full)


[+] MediaInfo
General
UniqueID                         : 171454597413309551933760633067699141777 (0x80FCF44EB75E264380B2F52AD3737C91)
Complete name                    : F:Avengers.Endgame.2019.Open.Matte.1080p.WEBRip.2xRus.Eng.TeamHD.mkv.part
Format                           : Matroska
File size                        : 5.16 GiB
Duration                         : 3h 1mn
Overall bit rate                 : 4 064 Kbps
Movie name                       : Avengers.Endgame.2019.Open.Matte.1080p.WEBRip.2xRus.Eng.TeamHD-spartanec163
Encoded date                     : UTC 2019-08-15 21:12:22
Writing application              : mkvmerge v8.3.0 ('Over the Horizon') 64bit
Writing library                  : libebml v1.3.1 + libmatroska v1.4.2

Video
ID                               : 1
Format                           : AVC
Format/Info                      : Advanced Video Codec
Format profile                   : High@L4.0
Format settings, CABAC           : Yes
Format settings, ReFrames        : 4 frames
Codec ID                         : V_MPEG4/ISO/AVC
Duration                         : 3h 1mn
Bit rate                         : 4 112 Kbps
Nominal bit rate                 : 5 000 Kbps
Width                            : 1 920 pixels
Height                           : 1 080 pixels
Display aspect ratio             : 16:9
Frame rate mode                  : Constant
Frame rate                       : 23.976 fps
Color space                      : YUV
Chroma subsampling               : 4:2:0
Bit depth                        : 8 bits
Scan type                        : Progressive
Bits/(Pixel*Frame)               : 0.054
Stream size                      : 3.43 GiB (67%)
Title                            : WEBRip 1080p (KP)
Writing library                  : x264 core 148 r2721 72d53ab
Encoding settings                : cabac=1 / ref=4 / deblock=1:0:0 / analyse=0x3:0x133 / me=umh / subme=10 / psy=1 / psy_rd=1.00:0.00 / mixed_ref=1 / me_range=24 / chroma_me=1 / trellis=2 / 8x8dct=1 / cqm=0 / deadzone=21,11 / fast_pskip=1 / chroma_qp_offset=-2 / threads=34 / lookahead_threads=5 / sliced_threads=0 / nr=0 / decimate=1 / interlaced=0 / bluray_compat=0 / constrained_intra=0 / bframes=8 / b_pyramid=2 / b_adapt=2 / b_bias=0 / direct=3 / weightb=1 / open_gop=0 / weightp=2 / keyint=100 / keyint_min=50 / scenecut=40 / intra_refresh=0 / rc_lookahead=60 / rc=2pass / mbtree=1 / bitrate=5000 / ratetol=1.0 / qcomp=0.60 / qpmin=0 / qpmax=69 / qpstep=4 / cplxblur=20.0 / qblur=0.5 / vbv_maxrate=5500 / vbv_bufsize=920 / nal_hrd=none / filler=0 / ip_ratio=1.40 / aq=1:1.00
Language                         : Russian

Audio #1
ID                               : 2
Format                           : AC-3
Format/Info                      : Audio Coding 3
Mode extension                   : CM (complete main)
Codec ID                         : A_AC3
Duration                         : 3h 1mn
Bit rate mode                    : Constant
Bit rate                         : 384 Kbps
Channel(s)                       : 6 channels
Channel positions                : Front: L C R, Side: L R, LFE
Sampling rate                    : 48.0 KHz
Bit depth                        : 16 bits
Compression mode                 : Lossy
Stream size                      : 499 MiB (9%)
Title                            : AC 3 5.1 384Kbps (Дубляж - iTunes)
Language                         : Russian
Default                          : Yes
Forced                           : No

Audio #2
ID                               : 3
Format                           : AC-3
Format/Info                      : Audio Coding 3
Mode extension                   : CM (complete main)
Codec ID                         : A_AC3
Duration                         : 3h 1mn
Bit rate mode                    : Constant
Bit rate                         : 256 Kbps
Channel(s)                       : 2 channels
Channel positions                : Front: L R
Sampling rate                    : 48.0 KHz
Bit depth                        : 16 bits
Compression mode                 : Lossy
Stream size                      : 333 MiB (6%)
Title                            : AC3 2.0 256Kbps (Профессиональный, многоголосый - HDRezka Studio)
Language                         : Russian
Default                          : No
Forced                           : No

Audio #3
ID                               : 4
Format                           : AC-3
Format/Info                      : Audio Coding 3
Mode extension                   : CM (complete main)
Codec ID                         : A_AC3
Duration                         : 3h 1mn
Bit rate mode                    : Constant
Bit rate                         : 640 Kbps
Channel(s)                       : 6 channels
Channel positions                : Front: L C R, Side: L R, LFE
Sampling rate                    : 48.0 KHz
Bit depth                        : 16 bits
Compression mode                 : Lossy
Stream size                      : 832 MiB (16%)
Title                            : AC3 5.1 640Kbps (Оригинал - BluRay)
Language                         : English
Default                          : No
Forced                           : No

Text #1
ID                               : 5
Format                           : UTF-8
Codec ID                         : S_TEXT/UTF8
Codec ID/Info                    : UTF-8 Plain Text
Title                            : Ruf
Language                         : Russian
Default                          : Yes
Forced                           : No

Text #2
ID                               : 6
Format                           : UTF-8
Codec ID                         : S_TEXT/UTF8
Codec ID/Info                    : UTF-8 Plain Text
Title                            : SDH
Language                         : Russian
Default                          : No
Forced                           : No

Text #3
ID                               : 7
Format                           : UTF-8
Codec ID                         : S_TEXT/UTF8
Codec ID/Info                    : UTF-8 Plain Text
Language                         : English
Default                          : No
Forced                           : No

Text #4
ID                               : 8
Format                           : UTF-8
Codec ID                         : S_TEXT/UTF8
Codec ID/Info                    : UTF-8 Plain Text
Title                            : SDH
Language                         : English
Default                          : No
Forced                           : No

Menu
00:00:00.000                     : en:Chapter 01
00:08:05.902                     : en:Chapter 02
00:20:01.700                     : en:Chapter 03
00:26:15.282                     : en:Chapter 04
00:36:57.173                     : en:Chapter 05
00:43:20.598                     : en:Chapter 06
00:48:44.171                     : en:Chapter 07
00:57:36.745                     : en:Chapter 08
01:07:12.612                     : en:Chapter 09
01:16:02.516                     : en:Chapter 10
01:26:25.430                     : en:Chapter 11
01:32:20.118                     : en:Chapter 12
01:38:55.805                     : en:Chapter 13
01:48:12.361                     : en:Chapter 14
01:57:26.915                     : en:Chapter 15
02:05:00.243                     : en:Chapter 16
02:15:06.432                     : en:Chapter 17
02:25:50.450                     : en:Chapter 18
02:34:37.935                     : en:Chapter 19
02:43:03.899                     : en:Chapter 20
02:49:05.344                     : en:Chapter 21



Скриншоты:
[+] Всего файлов в раздаче - 1:
Avengers.Endgame.2019.Open.Matte.1080p.WEBRip.2xRus.Eng.TeamHD.mkv6.84 GB

Показать еще раздачи по запросу мстители:
2019-11-04 U Мстители: Финал / Avengers: Endgame (2019) HybridRip 1080p | D | iTunes | Open Matte 17.34 GB ↑ 21 ↓ 18
2019-08-18 U Мстители: Финал / Avengers: Endgame (2019) HDRip от Scarabey | iTunes 2.71 GB ↑ 101 ↓ 17
2019-08-07 U Мстители: Финал / Avengers: Endgame (2019) BDRip-HEVC 1080p от HANNIBAL | iTunes 8.02 GB ↑ 55 ↓ 41
2019-08-07 U Мстители: Финал / Avengers: Endgame (2019) BDRip 1080p от qqss44 & MegaPeer | iTunes 9.63 GB ↑ 102 ↓ 73
2019-08-07 U Мстители: Финал / Avengers: Endgame (2019) BDRip 1080p от HELLYWOOD | iTunes 11.88 GB ↑ 238 ↓ 112
2019-08-05 U Мстители: Финал / Avengers: Endgame (2019) BDRip-HEVC 1080p | iTunes 4.49 GB ↑ 408 ↓ 161
2019-08-04 U Мстители: Финал / Avengers: Endgame (2019) BDRip-AVC от HELLYWOOD | iTunes 2.10 GB ↑ 101 ↓ 51

Отзывы
Зарегистрируйтесь чтобы добавить комментарий.
Обратная связь
Copyleft ©