↑↓torrent.by
Поиск
Логин: Регистрация
Пароль: Восстановить пароль

Босс-молокосос 2 / The Boss Baby: Family Business (2021) BDRip 1080p | Pazl Voice

Скачать boss-molokosos-2-the-baby-family-business-2021-bdrip-1080p-pazl-voice.torrent
U Магнитная ссылка Размер: 8.03 GB Раздают: 73 Качают: 75 Добавлен: 2021-09-11 21:15:52
Босс-молокосос 2 / The Boss Baby: Family Business (2021) BDRip 1080p | Pazl Voice

Название: Босс-молокосос 2
Оригинальное название: The Boss Baby: Family Business
Год выхода: 2021
Жанр: Мультфильм, комедия, приключения, семейный
Режиссер: Том МакГрат
В ролях: Алек Болдуин, Джеймс Марсден, Эми Седарис, Ариана Гринблатт, Джефф Голдблюм, Ева Лонгория, Джеймс МакГрат, Джимми Киммел, Лиза Кудроу, Рафаэль Алехандро, Серенити Рейн Браун, Дэвид Сорен, Николас Гист, Джеймс Райан

О фильме:
Братья Тим и Тед давно повзрослели и отдалились друг от друга. Тед стал генеральным директором инвестиционного фонда, а Тим посвятил себя семье. Он женился, поселился в пригороде и обзавелся двумя прекрасными дочерьми — Тиной и Табитой. 7-летняя Табита — умная и очень усердная. Несмотря на свой юный возраст, она уже лучшая в классе, а малышка Тина на самом деле оказывается агентом компании BabyCorp. Узнав, что злой гений доктор Эрвин Армстронг выращивает целую армию злобных малышей, Тина с помощью своего папы и дяди решает противостоять ему.

Страна: США
Студия: DreamWorks Animation
Продолжительность: 01:47:13
Перевод: Любительский двухголосый | Pazl Voice

Файл
Кодек: x.264
Качество: BDRip 1080p | The.Boss.Baby.Family.Business.2021.1080p.BluRay.x264.DTS-MT
Видео: MPEG-4 AVC, 9637 Kбит/с, 1920x804, 23.976 кадр/с
Аудио #1: Русский (АС3, 6 ch, 448 Кбит/с, 48.0 KHz) Любительский (двухголосый, закадровый) Pazl Voice
Аудио #2: Английский (АС3, 6 ch, 640 Кбит/с, 48.0 KHz)
Субтитры: Русские (Full), английские
► Без Рекламы!
Трейлер


[+] MediaInfo
Источник: The.Boss.Baby.Family.Business.2021.1080p.BluRay.x264.DTS-MT [url=/tag/7/][/url]
General [url=/tag/7/][/url]
Unique ID                      : 187694944460523788966873673203210761036 (0x8D34BB3CAE3A938998969CA1F1FFB34C) [url=/tag/7/][/url]
Complete name                  : The.Boss.Baby.Family.Business.2021.BDRip.1080p.mkv [url=/tag/7/][/url]
Format                         : Matroska [url=/tag/7/][/url]
Format version                 : Version 4 / Version 2 [url=/tag/7/][/url]
File size                      : 8.03 GiB [url=/tag/7/][/url]
Duration                       : 1 h 47 min [url=/tag/7/][/url]
Overall bit rate               : 10.7 Mb/s [url=/tag/7/][/url]
Encoded date                   : UTC 2021-09-11 08:47:02 [url=/tag/7/][/url]
Writing application            : mkvmerge v7.1.0 ('Good Love') 64bit built on Jul 27 2014 13:06:55 [url=/tag/7/][/url]
Writing library                : libebml v1.3.0 + libmatroska v1.4.1 [url=/tag/7/][/url]
[url=/tag/7/][/url]
Video [url=/tag/7/][/url]
ID                             : 1 [url=/tag/7/][/url]
Format                         : AVC [url=/tag/7/][/url]
Format/Info                    : Advanced Video Codec [url=/tag/7/][/url]
Format profile                 : High@L4.1 [url=/tag/7/][/url]
Format settings, CABAC         : Yes [url=/tag/7/][/url]
Format settings, RefFrames     : 5 frames [url=/tag/7/][/url]
Codec ID                       : V_MPEG4/ISO/AVC [url=/tag/7/][/url]
Duration                       : 1 h 47 min [url=/tag/7/][/url]
Bit rate                       : 9 637 kb/s [url=/tag/7/][/url]
Width                          : 1 920 pixels [url=/tag/7/][/url]
Height                         : 804 pixels [url=/tag/7/][/url]
Display aspect ratio           : 2.40:1 [url=/tag/7/][/url]
Frame rate mode                : Constant [url=/tag/7/][/url]
Frame rate                     : 23.976 (24000/1001) FPS [url=/tag/7/][/url]
Color space                    : YUV [url=/tag/7/][/url]
Chroma subsampling             : 4:2:0 [url=/tag/7/][/url]
Bit depth                      : 8 bits [url=/tag/7/][/url]
Scan type                      : Progressive [url=/tag/7/][/url]
Bits/(Pixel*Frame)             : 0.260 [url=/tag/7/][/url]
Stream size                    : 7.22 GiB (90%) [url=/tag/7/][/url]
Writing library                : x264 core 157 r2938 2b00a84 TnP@MTeam Mod [url=/tag/7/][/url]
Encoding settings              : cabac=1 / ref=5 / deblock=1:-3:-3 / analyse=0x3:0x133 / me=umh / subme=10 / psy=1 / psy_rd=1.05:0.00 / mixed_ref=1 / me_range=32 / chroma_me=1 / trellis=2 / 8x8dct=1 / cqm=0 / deadzone=21,11 / fast_pskip=0 / chroma_qp_offset=-2 / threads=12 / lookahead_threads=2 / sliced_threads=0 / nr=0 / decimate=0 / interlaced=0 / bluray_compat=0 / constrained_intra=0 / bframes=8 / b_pyramid=2 / b_adapt=2 / b_bias=0 / direct=3 / weightb=1 / open_gop=0 / weightp=2 / keyint=250 / keyint_min=24 / scenecut=40 / intra_refresh=0 / rc_lookahead=250 / rc=crf / mbtree=0 / crf=16.8 / qcomp=0.60 / qpmin=0 / qpmax=69 / qpstep=4 / vbv_maxrate=62500 / vbv_bufsize=78125 / crf_max=0.0 / nal_hrd=none / filler=0 / ip_ratio=1.30 / pb_ratio=1.20 / aq=3:0.80 [url=/tag/7/][/url]
Language                       : English [url=/tag/7/][/url]
Default                        : Yes [url=/tag/7/][/url]
Forced                         : No [url=/tag/7/][/url]
Color range                    : Limited [url=/tag/7/][/url]
Color primaries                : BT.709 [url=/tag/7/][/url]
Matrix coefficients            : BT.709 [url=/tag/7/][/url]
[url=/tag/7/][/url]
Audio #1 [url=/tag/7/][/url]
ID                             : 2 [url=/tag/7/][/url]
Format                         : AC-3 [url=/tag/7/][/url]
Format/Info                    : Audio Coding 3 [url=/tag/7/][/url]
Format settings, Endianness    : Big [url=/tag/7/][/url]
Codec ID                       : A_AC3 [url=/tag/7/][/url]
Duration                       : 1 h 47 min [url=/tag/7/][/url]
Bit rate mode                  : Constant [url=/tag/7/][/url]
Bit rate                       : 448 kb/s [url=/tag/7/][/url]
Channel(s)                     : 6 channels [url=/tag/7/][/url]
Channel positions              : Front: L C R, Side: L R, LFE [url=/tag/7/][/url]
Sampling rate                  : 48.0 kHz [url=/tag/7/][/url]
Frame rate                     : 31.250 FPS (1536 SPF) [url=/tag/7/][/url]
Bit depth                      : 16 bits [url=/tag/7/][/url]
Compression mode               : Lossy [url=/tag/7/][/url]
Stream size                    : 344 MiB (4%) [url=/tag/7/][/url]
Title                          : DVO | Pazl Voice [url=/tag/7/][/url]
Language                       : Russian [url=/tag/7/][/url]
Service kind                   : Complete Main [url=/tag/7/][/url]
Default                        : Yes [url=/tag/7/][/url]
Forced                         : No [url=/tag/7/][/url]
[url=/tag/7/][/url]
Audio #2 [url=/tag/7/][/url]
ID                             : 3 [url=/tag/7/][/url]
Format                         : AC-3 [url=/tag/7/][/url]
Format/Info                    : Audio Coding 3 [url=/tag/7/][/url]
Format settings, Endianness    : Big [url=/tag/7/][/url]
Codec ID                       : A_AC3 [url=/tag/7/][/url]
Duration                       : 1 h 47 min [url=/tag/7/][/url]
Bit rate mode                  : Constant [url=/tag/7/][/url]
Bit rate                       : 640 kb/s [url=/tag/7/][/url]
Channel(s)                     : 6 channels [url=/tag/7/][/url]
Channel positions              : Front: L C R, Side: L R, LFE [url=/tag/7/][/url]
Sampling rate                  : 48.0 kHz [url=/tag/7/][/url]
Frame rate                     : 31.250 FPS (1536 SPF) [url=/tag/7/][/url]
Bit depth                      : 16 bits [url=/tag/7/][/url]
Compression mode               : Lossy [url=/tag/7/][/url]
Stream size                    : 491 MiB (6%) [url=/tag/7/][/url]
Language                       : English [url=/tag/7/][/url]
Service kind                   : Complete Main [url=/tag/7/][/url]
Default                        : No [url=/tag/7/][/url]
Forced                         : No [url=/tag/7/][/url]
[url=/tag/7/][/url]
Text #1 [url=/tag/7/][/url]
ID                             : 4 [url=/tag/7/][/url]
Format                         : UTF-8 [url=/tag/7/][/url]
Codec ID                       : S_TEXT/UTF8 [url=/tag/7/][/url]
Codec ID/Info                  : UTF-8 Plain Text [url=/tag/7/][/url]
Duration                       : 1 h 37 min [url=/tag/7/][/url]
Bit rate                       : 129 b/s [url=/tag/7/][/url]
Count of elements              : 1945 [url=/tag/7/][/url]
Stream size                    : 92.6 KiB (0%) [url=/tag/7/][/url]
Language                       : Russian [url=/tag/7/][/url]
Default                        : No [url=/tag/7/][/url]
Forced                         : No [url=/tag/7/][/url]
[url=/tag/7/][/url]
Text #2 [url=/tag/7/][/url]
ID                             : 5 [url=/tag/7/][/url]
Format                         : UTF-8 [url=/tag/7/][/url]
Codec ID                       : S_TEXT/UTF8 [url=/tag/7/][/url]
Codec ID/Info                  : UTF-8 Plain Text [url=/tag/7/][/url]
Duration                       : 1 h 40 min [url=/tag/7/][/url]
Bit rate                       : 82 b/s [url=/tag/7/][/url]
Count of elements              : 2172 [url=/tag/7/][/url]
Stream size                    : 61.0 KiB (0%) [url=/tag/7/][/url]
Title                          : SRT [url=/tag/7/][/url]
Language                       : English [url=/tag/7/][/url]
Default                        : No [url=/tag/7/][/url]
Forced                         : No [url=/tag/7/][/url]
[url=/tag/7/][/url]
Menu [url=/tag/7/][/url]
00:00:00.000                   : en:Chapter 01 [url=/tag/7/][/url]
00:04:18.383                   : en:Chapter 02 [url=/tag/7/][/url]
00:09:50.673                   : en:Chapter 03 [url=/tag/7/][/url]
00:13:43.364                   : en:Chapter 04 [url=/tag/7/][/url]
00:19:51.816                   : en:Chapter 05 [url=/tag/7/][/url]
00:24:55.119                   : en:Chapter 06 [url=/tag/7/][/url]
00:29:12.125                   : en:Chapter 07 [url=/tag/7/][/url]
00:34:22.018                   : en:Chapter 08 [url=/tag/7/][/url]
00:38:09.245                   : en:Chapter 09 [url=/tag/7/][/url]
00:44:36.299                   : en:Chapter 10 [url=/tag/7/][/url]
00:51:25.124                   : en:Chapter 11 [url=/tag/7/][/url]
01:00:47.853                   : en:Chapter 12 [url=/tag/7/][/url]
01:04:54.474                   : en:Chapter 13 [url=/tag/7/][/url]
01:08:08.209                   : en:Chapter 14 [url=/tag/7/][/url]
01:13:27.403                   : en:Chapter 15 [url=/tag/7/][/url]
01:18:38.172                   : en:Chapter 16 [url=/tag/7/][/url]
01:22:44.418                   : en:Chapter 17 [url=/tag/7/][/url]
01:27:13.437                   : en:Chapter 18 [url=/tag/7/][/url]
01:35:06.701                   : en:Chapter 19 [url=/tag/7/][/url]
01:38:13.721                   : en:Chapter 20 [url=/tag/7/][/url]



Скриншоты:
[+] Всего файлов в раздаче - 1:
The.Boss.Baby.Family.Business.2021.BDRip.1080p.mkv8.03 GB

Похожие раздачи по запросу - босс:
2021-09-12 U Босс-молокосос 2 / The Boss Baby: Family Business (2021) HDRip-AVC | Pazl Voice 2.18 GB ↑ 59 ↓ 33
2021-08-25 U Адский Босс / Helluva Boss [01x00-06 из 08] (2019) WEBRip 1080p | NewStation 1.72 GB ↑ 20 ↓ 3
2021-07-14 U Босс-молокосос 2 / Бебі Бос 2: Сімейний бізнес / The Boss Baby: Family Business (2021) WEB-DL 1080p | Line | UKR 5.78 GB ↑ 90 ↓ 28
2021-07-10 U Босс-молокосос 2 / The Boss Baby: Family Business (2021) WEB-DL 1080p | Pazl Voice 5.98 GB ↑ 1118 ↓ 332

Отзывы
Зарегистрируйтесь чтобы добавить комментарий.
Загрузите программу
  byTorrent
Обратная связь
Copyleft ©