↑↓Torrent.by
Поиск
Логин: Регистрация
Пароль: Восстановить пароль
Загрузка...

Мамонты - гиганты ледникового периода / Mammoths - Giants of the Ice Age (2014) DVB | P1

Скачать mamonty-giganty-lednikovogo-perioda-mammoths-giants-of-the-ice-age-2014-dvb-p1.torrent
U Магнитная ссылка Размер: 881.87 MB Раздают: 20 Качают: 8 Добавлен: 2019-08-18 08:53:15
Мамонты - гиганты ледникового периода / Mammoths - Giants of the Ice Age (2014) DVB | P1

Название: Мамонты - гиганты ледникового периода
Оригинальное название: Mammoths - Giants of the Ice Age
Год выхода: 2014
Жанр: Документальный, археология
Режиссер: Флориан Брейер

О фильме:
15 000 лет назад наша планета была населена миллионами мамонтов. В этом фильме Дик Мол, всемирно известный эксперт по мамонтам, прослеживает их происхождение в Намибии, тралит дно Северного моря для поиска окаменелостей  и с помощью золотоискателей в северной Канаде выкапывает прекрасно сохранившиеся кости из вечной мерзлоты. При поддержке целого ряда других экспертов он отслеживает жизнь этих необычных животных и восстанавливает причины, по которым они окончательно вымерли 3700 лет назад.

Страна: Германия
Студия: ZDF
Продолжительность: 00:45:58
Перевод: Профессиональный (одноголосый закадровый) Видеофильм ТВ

Файл
Кодек: AVC/H.264
Качество: DVB
Видео: 720x576@1047x576 (16:9) AVC (H.264) Main@L3.0, ~ 2355 kbps, 25fps
Звук: Русский 48 kHz, MPEG Layer 2, 2 ch, ~192.00 kbps avg

Семпл

Релиз от: kyba
[+] MediaInfo
Complete name               : F:НаладкиSD-фильмыМамонты_ Гиганты ледникового периода.ts
Format                      : MPEG-TS
File size                   : 882 MiB
Duration                    : 45 min 59 s
Overall bit rate mode       : Variable
Overall bit rate            : 2 681 kb/s

Video
ID                          : 401 (0x191)
Menu ID                     : 2608 (0xA30)
Format                      : AVC
Format/Info                 : Advanced Video Codec
Format profile              : Main@L3
Format settings             : CABAC / 4 Ref Frames
Format settings, CABAC      : Yes
Format settings, Reference  : 4 frames
Codec ID                    : 27
Duration                    : 45 min 58 s
Bit rate                    : 2 355 kb/s
Width                       : 720 pixels
Height                      : 576 pixels
Display aspect ratio        : 16:9
Frame rate                  : 25.000 FPS
Standard                    : Component
Color space                 : YUV
Chroma subsampling          : 4:2:0
Bit depth                   : 8 bits
Scan type                   : Interlaced
Scan type, store method     : Separated fields
Scan order                  : Top Field First
Bits/(Pixel*Frame)          : 0.227
Stream size                 : 774 MiB (88%)
Color range                 : Limited
Color primaries             : BT.601 PAL
Transfer characteristics    : BT.470 System B/G
Matrix coefficients         : BT.470 System B/G

Audio
ID                          : 402 (0x192)
Menu ID                     : 2608 (0xA30)
Format                      : MPEG Audio
Format version              : Version 1
Format profile              : Layer 2
Codec ID                    : 3
Duration                    : 45 min 58 s
Bit rate mode               : Constant
Bit rate                    : 192 kb/s
Channel(s)                  : 2 channels
Sampling rate               : 48.0 kHz
Frame rate                  : 41.667 FPS (1152 SPF)
Compression mode            : Lossy
Stream size                 : 63.1 MiB (7%)
Language                    : Russian



Скриншоты:
[+] Всего файлов в раздаче - 1:
Мамонты_ гиганты ледникового периода.ts881.87 MB

Отзывы
Зарегистрируйтесь чтобы добавить комментарий.
Обратная связь
Copyleft ©