↑↓Torrent.by
Поиск
Логин: Регистрация
Пароль: Восстановить пароль
Загрузка...

Мстители: Финал / Avengers: Endgame (2019) WEBRip от Deadmauvlad | D | Open Matte | Локализованная версия

Скачать mstiteli-final-avengers-endgame-2019-webrip-ot-deadmauvlad-d-open-matte-lokalizovannaya-versiya.torrent
U Магнитная ссылка Размер: 2.19 GB Раздают: 16 Качают: 11 Добавлен: 2019-08-18 08:53:30
Мстители: Финал / Avengers: Endgame (2019) WEBRip от Deadmauvlad | D | Open Matte | Локализованная версия

Информация о фильме
Название: Мстители: Финал
Оригинальное название: Avengers: Endgame
Год выхода: 2019
Жанр:  Фантастика, Боевик, Приключения
Режиссер: Энтони Руссо, Джо Руссо
В ролях: Роберт Дауни мл., Крис Эванс, Марк Руффало, Крис Хемсворт, Скарлетт Йоханссон, Джереми Реннер, Дон Чидл, Пол Радд, Бри Ларсон, Карен Гиллан

О фильме:
Оставшиеся в живых члены команды Мстителей и их союзники должны разработать новый план, который поможет противостоять разрушительным действиям могущественного титана Таноса. После наиболее масштабной и трагической битвы в истории они не могут допустить ошибку.

Страна: США
Студия: Walt Disney Pictures, Marvel Studios
Продолжительность: 03:01:47
Перевод: Дублированный (iTunes)

Файл
Качество: WEBRip [Open Matte Version] Исходник 1080p - Kinopoisk
Формат: AVI
Видео:  XviD, 688x384 (16:9), 23.976 fps, 1329 Кбит/сек (0.210 bit/pixel)
Аудио: AC-3, 48,0 КГц, 6 ch, 384 Кбит/сек, CBR
Субтитры: Русские (hardsub) (Forsed)

Релиз/автор рипа by Deadmauvlad


[+] MediaInfo
Общее
Полное имя                               : Avengers.Endgame.2019.Open.Matte.WEBRip.RUS.DUB.Deadmauvlad.2.18.GB.avi
Формат                                   : AVI
Формат/Информация                        : Audio Video Interleave
Профиль формата                          : OpenDML
Размер файла                             : 2,19 Гбайт
Продолжительность                        : 3 ч. 1 м.
Общий поток                              : 1723 Кбит/сек
Название фильма                          : Avengers.Endgame.2019.Open.Matte.WEBRip.RUS.DUB.Deadmauvlad.2.18.GB
Режиссёр                                 : Encoder by Deadmauvlad
Жанр                                     : фантастика, боевик
Программа кодирования                    : VirtualDubMod 1.5.10.3 | www.virtualdub-fr.org || (build 2550/release)
Формат оригинала/Имя                     : Фильм
Авторское право                          : Encoder by Deadmauvlad
Примечание                               : Open Matte | Локализованная версия

Видео
Идентификатор                            : 0
Формат                                   : MPEG-4 Visual
Профиль формата                          : Advanced Simple@L5
Настройки формата                        : BVOP1 / Custom Matrix
Параметр BVOP формата                    : 1
Параметр QPel формата                    : Нет
Параметр GMC формата                     : Без точки перехода
Параметр матрицы формата                 : Выборочная
Идентификатор кодека                     : XVID
Идентификатор кодека/Подсказка           : XviD
Продолжительность                        : 3 ч. 1 м.
Битрейт                                  : 1329 Кбит/сек
Ширина                                   : 688 пикселей
Высота                                   : 384 пикселя
Соотношение сторон                       : 16:9
Частота кадров                           : 23,976 (24000/1001) кадра/сек
Цветовое пространство                    : YUV
Субдискретизация насыщенности            : 4:2:0
Битовая глубина                          : 8 бит
Тип развёртки                            : Прогрессивная
Метод сжатия                             : С потерями
Бит/(Пиксели*Кадры)                      : 0.210
Размер потока                            : 1,69 Гбайт (77%)
Библиотека кодирования                   : XviD 73

Аудио
Идентификатор                            : 1
Формат                                   : AC-3
Формат/Информация                        : Audio Coding 3
Коммерческое название                    : Dolby Digital
Идентификатор кодека                     : 2000
Продолжительность                        : 3 ч. 1 м.
Вид битрейта                             : Постоянный
Битрейт                                  : 384 Кбит/сек
Каналы                                   : 6 каналов
Channel layout                           : L R C LFE Ls Rs
Частота                                  : 48,0 КГц
Частота кадров                           : 31,250 кадров/сек (1536 SPF)
Битовая глубина                          : 16 бит
Метод сжатия                             : С потерями
Размер потока                            : 498 Мбайт (22%)
Выравнивание                             : Разделение по промежуткам
Продолжительность промежутка             : 42  мс. (1,00 видеокадр)
Время предзагрузки промежутка            : 500  мс.



Скриншоты:
[+] Всего файлов в раздаче - 1:
Avengers.Endgame.2019.Open.Matte.WEBRip.RUS.DUB.Deadmauvlad.2.18.GB.avi2.19 GB

Показать еще раздачи по запросу мстители:
2019-08-18 U Мстители: Финал / Avengers: Endgame (2019) HDRip от Scarabey | iTunes 2.71 GB ↑ 48 ↓ 17
2019-08-16 U Мстители: Финал / Avengers: Endgame (2019) WEBRip 1080p | D, P | Open Matte | Локализованная версия 6.84 GB ↑ 149 ↓ 71
2019-08-09 U Мстители: Финал / Avengers: Endgame (2019) BDRip-HEVC 720p | D | iTunes 3.13 GB ↑ 64 ↓ 20
2019-08-07 U Мстители: Финал / Avengers: Endgame (2019) BDRip-HEVC 1080p от HANNIBAL | iTunes 8.02 GB ↑ 51 ↓ 40
2019-08-07 U Мстители: Финал / Avengers: Endgame (2019) BDRip 1080p от qqss44 & MegaPeer | iTunes 9.63 GB ↑ 91 ↓ 71
2019-08-07 U Мстители: Финал / Avengers: Endgame (2019) BDRip 1080p от HELLYWOOD | iTunes 11.88 GB ↑ 225 ↓ 107
2019-08-05 U Мстители: Финал / Avengers: Endgame (2019) BDRip-AVC от HELLYWOOD | iTunes 2.83 GB ↑ 149 ↓ 57

Отзывы
Зарегистрируйтесь чтобы добавить комментарий.
Обратная связь
Copyleft ©