↑↓Torrent.by
Поиск
Логин: Регистрация
Пароль: Восстановить пароль
Загрузка...

Хроники видика: легенды эпохи VHS (2018) WEBRip 720p от HDReactor

Скачать hroniki-vidika-legendy-epohi-vhs-2018-webrip-720p-ot-hdreactor.torrent
U Магнитная ссылка Размер: 4.37 GB Раздают: 49 Качают: 20 Добавлен: 2019-08-19 07:18:14
Хроники видика: легенды эпохи VHS (2018) WEBRip 720p от HDReactor

Оригинальное название: Хроники видика: легенды эпохи VHS
Год выпуска: 2018
Жанр:  Документальный, кинематограф
Режиссер: Святослав Бирючин
В ролях: Андрей Гаврилов, Василий Горчаков, Павел Санаев

О фильме: Долгожданный документальный фильм "Хроники видика: легенды эпохи VHS". Праздник для всех ностальгирующих по авторскому переводу конца 80-х - 90-х годов, когда самым распространенным способом просмотра зарубежных фильмов были видеокассеты формата VHS. Все помнят, например, неповторимый гнусавый перевод Володарского, но он был лишь одним из нескольких легендарных мастеров киноперевода. Автор фильма Святослав Бирючин встретился и пообщался с переводчиками той эпохи и изучил уникальное явление в российской массовой культуре 90-х под названием "авторский перевод фильмов".

Страна: Россия
Продолжительность: 2 х ~ 01:25:00
Перевод: Не требуется

Файл
Качество: WEBRip (720p)
Видео: MPEG-4 AVC, 3.1 Mбит/с, 1280x720
Аудио: AC3, 2 ch, 192 Кбит/с

[url=https://d.radikal.ru/d01/1908/c0/ee3463e9b0b8.png" target="_blank">


[+] МедиаИнфо
Формат                                   : Matroska
Версия формата                           : Version 2
Размер файла                             : 1,83 Гбайт
Продолжительность                        : 1 ч. 18 м.
Общий поток                              : 3362 Кбит/сек
Название фильма                          : ~V ad~
Дата кодирования                         : UTC 2019-08-18 17:34:47
Программа кодирования                    : mkvmerge v6.5.0 ('Isn't she lovely') built on Oct 20 2013 12:50:05
Библиотека кодирования                   : libebml v1.3.0 + libmatroska v1.4.1
Обложка                                  : Yes
Attachments                              : cover.jpg

Видео
Идентификатор                            : 1
Формат                                   : AVC
Формат/Информация                        : Advanced Video Codec
Профиль формата                          : High@L4.1
Настройки формата                        : CABAC / 9 Ref Frames
Параметр CABAC формата                   : Да
Параметр RefFrames формата               : 9 кадров
Идентификатор кодека                     : V_MPEG4/ISO/AVC
Продолжительность                        : 1 ч. 18 м.
Битрейт                                  : 3167 Кбит/сек
Ширина                                   : 1280 пикселей
Высота                                   : 720 пикселей
Соотношение сторон                       : 16:9
Режим частоты кадров                     : Постоянный
Частота кадров                           : 25,000 кадров/сек
Цветовое пространство                    : YUV
Субдискретизация насыщенности            : 4:2:0
Битовая глубина                          : 8 бит
Тип развёртки                            : Прогрессивная
Бит/(Пиксели*Кадры)                      : 0.137
Размер потока                            : 1,69 Гбайт (92%)
Заголовок                                : ~V~
Библиотека кодирования                   : x264 core 158 r2984 3759fcb
Настройки программы                      : cabac=1 / ref=9 / deblock=1:0:0 / analyse=0x3:0x133 / me=umh / subme=11 / psy=1 / psy_rd=1.00:0.00 / mixed_ref=1 / me_range=32 / chroma_me=1 / trellis=2 / 8x8dct=1 / cqm=0 / deadzone=21,11 / fast_pskip=0 / chroma_qp_offset=-2 / threads=12 / lookahead_threads=1 / sliced_threads=0 / nr=0 / decimate=0 / interlaced=0 / bluray_compat=0 / constrained_intra=0 / bframes=9 / b_pyramid=2 / b_adapt=2 / b_bias=0 / direct=3 / weightb=1 / open_gop=0 / weightp=2 / keyint=250 / keyint_min=25 / scenecut=40 / intra_refresh=0 / rc=2pass / mbtree=0 / bitrate=3167 / ratetol=1.0 / qcomp=0.56 / qpmin=0 / qpmax=69 / qpstep=4 / cplxblur=20.0 / qblur=0.5 / ip_ratio=1.30 / pb_ratio=1.30 / aq=3:1.00
Язык                                     : Английский
Default                                  : Да
Forced                                   : Нет

Аудио
Идентификатор                            : 2
Формат                                   : AC-3
Формат/Информация                        : Audio Coding 3
Коммерческое название                    : Dolby Digital
Идентификатор кодека                     : A_AC3
Продолжительность                        : 1 ч. 18 м.
Вид битрейта                             : Постоянный
Битрейт                                  : 192 Кбит/сек
Каналы                                   : 2 канала
Channel layout                           : L R
Частота                                  : 48,0 КГц
Частота кадров                           : 31,250 кадров/сек (1536 SPF)
Битовая глубина                          : 16 бит
Метод сжатия                             : С потерями
Размер потока                            : 107 Мбайт (6%)
Язык                                     : Русский
Service Kind                             : Complete Main
Default                                  : Да
Forced                                   : Нет




Скриншоты:
[+] Всего файлов в раздаче - 2:
Hroniki.vidika.02.WEBRip.720p.HDReactor.mkv2.54 GB
Hroniki.vidika.01.WEBRip.720p.HDReactor.mkv1.83 GB

Показать еще раздачи по запросу хроники:
2019-09-13 U Игорь Вереснев - Хроники Максима Волгина (2019) [FB2] 2.09 MB ↑ 2 ↓ 0
2019-08-31 U Клайв Стейплз Льюис - Хроники Нарнии 1. Племянник чародея (2019) MP3 80.49 MB ↑ 3 ↓ 0
2019-08-12 U Хроники видика: легенды эпохи VHS (2018) WEB-DLRip от ExKinoRay 2.49 GB ↑ 117 ↓ 49
2019-06-22 U Андрэ Нортон - Война во времени. Вольные торговцы. Лоренс ван Норрис. Хроники полукровок [cборник] (2019) FB2 14.16 MB ↑ 102 ↓ 6
2019-06-12 U Раймонд Фэйст - Хроники Мидкемии [сборник] (2019) FB2 31.97 MB ↑ 90 ↓ 7
2019-05-26 U Ник Перумов - Хроники Хьерварда 1. Гибель богов [Часть 1] (2019) MP3 224.98 MB ↑ 65 ↓ 4
2019-04-03 U Хроники хищных городов / Mortal Engines (2018) BDRip 1080p от Ash61 | 3D-Video | halfOU | iTunes 9.88 GB ↑ 43 ↓ 25

Отзывы
Зарегистрируйтесь чтобы добавить комментарий.
Обратная связь
Copyleft ©