↑↓torrent.by
Поиск
Логин: Регистрация
Пароль: Восстановить пароль

Годзилла 2: Король монстров / Godzilla: King of the Monsters (2019) BDRip 1080p от qqss44 & MegaPeer | iTunes

Скачать godzilla-2-korol-monstrov-king-of-the-monsters-2019-bdrip-1080p-ot-qqss44-megapeer-itunes.torrent
U Магнитная ссылка Размер: 7.52 GB Раздают: 147 Качают: 49 Добавлен: 2019-08-20 07:23:21
Годзилла 2: Король монстров / Godzilla: King of the Monsters (2019) BDRip 1080p от qqss44 & MegaPeer | iTunes

Анонсы 1080p от qqss44

Информация о фильме
Название: Годзилла 2: Король монстров
Оригинальное название: Godzilla: King of the Monsters
Год выхода: 2019
Жанр: Фантастика, фэнтези, боевик, приключения
Режиссер: Майкл Догерти
В ролях: Кайл Чандлер, Вера Фармига, Милли Бобби Браун, Кэн Ватанабэ, Цзыи Чжан, Брэдли Уитфорд, Салли Хокинс, Чарльз Дэнс, Томас Миддлдитч, Аиша Хайндс, О`Ши Джексон мл., Дэвид Стрэтэйрн, Энтони Рамос, Элизабет Ладлоу, Джонатан Ховард, Си Си Эйч Паундер, Джо Мортон, Тайлер Крумли, Келли Гарнер

О фильме:
История рассказывает о героических усилиях криптозоологического агентства «Монарх» по сдерживанию гигантских монстров. В этот раз против могучего Годзиллы выступают Мотра, Родан и ультимативный кайдзю - трёхголовый монстр Кинг Гидора. Когда эти древние суперхищники, со временем превратившиеся в полузабытые мифы, восстают снова, чтобы сойтись в схватке, человечеству остаётся отойти в сторонку и постараться не погибнуть.

Страна: США, Япония
Студия: Warner Bros., Legendary Entertainment, Toho Company
Продолжительность: 02:11:42
Перевод: Дублированный | iTunes

Файл
Формат: MKV, BDRip 1080p
Видео: MPEG-4 AVC, 7788 Кбит/с, 1920x800
Aудио#1: [RUS] AC3 | 48 KHz | 5.1 (Front: L С R Side: L R) + LFE | ~384 kbps
Субтитры: русские форсированные и полные (отключаемые, srt)
Релиз:


[+] МИ

Общее
Уникальный идентификатор                 : 180452927146585540131834227265455192884 (0x87C1F837569380E6B371567E6612FB34)
Полное имя                               : H:Godzilla.King.of.the.Monsters.(2019).BDRip-1080p.MegaPeer.(qqss44).mkv
Формат                                   : Matroska
Версия формата                           : Version 2
Размер файла                             : 7,52 Гбайт
Продолжительность                        : 2 ч. 11 м.
Общий поток                              : 8170 Кбит/сек
Название фильма                          : Godzilla.King.of.the.Monsters.(2019).BDRip-1080p.MegaPeer.(qqss44)
Дата кодирования                         : UTC 2019-08-19 12:23:57
Программа кодирования                    : mkvmerge v7.8.0 ('River Man') 32bit built on Apr  3 2015 12:11:22
Библиотека кодирования                   : libebml v1.3.1 + libmatroska v1.4.2

Видео
Идентификатор                            : 1
Формат                                   : AVC
Формат/Информация                        : Advanced Video Codec
Профиль формата                          : High@L4.1
Параметр CABAC формата                   : Да
Параметр ReFrames формата                : 5 кадров
Идентификатор кодека                     : V_MPEG4/ISO/AVC
Продолжительность                        : 2 ч. 11 м.
Битрейт                                  : 7788 Кбит/сек
Ширина                                   : 1920 пикселей
Высота                                   : 800 пикселей
Соотношение сторон                       : 2,40:1
Режим частоты кадров                     : Постоянный
Частота кадров                           : 23,976 (24000/1001) кадра/сек
Цветовое пространство                    : YUV
Субдискретизация насыщенности            : 4:2:0
Битовая глубина                          : 8 бит
Тип развёртки                            : Прогрессивная
Бит/(Пиксели*Кадры)                      : 0.211
Размер потока                            : 7,01 Гбайт (93%)
Библиотека кодирования                   : x264 core 152 r2851 ba24899
Настройки программы                      : cabac=1 / ref=5 / deblock=1:-3:-3 / analyse=0x3:0x113 / me=umh / subme=11 / psy=1 / psy_rd=1.00:0.00 / mixed_ref=1 / me_range=32 / chroma_me=1 / trellis=2 / 8x8dct=1 / cqm=0 / deadzone=21,11 / fast_pskip=0 / chroma_qp_offset=-2 / threads=12 / lookahead_threads=2 / sliced_threads=0 / nr=0 / decimate=0 / interlaced=0 / bluray_compat=0 / constrained_intra=0 / bframes=9 / b_pyramid=2 / b_adapt=2 / b_bias=0 / direct=3 / weightb=1 / open_gop=0 / weightp=2 / keyint=250 / keyint_min=23 / scenecut=40 / intra_refresh=0 / rc_lookahead=40 / rc=2pass / mbtree=0 / bitrate=7788 / ratetol=1.0 / qcomp=0.70 / qpmin=0 / qpmax=69 / qpstep=4 / cplxblur=20.0 / qblur=0.5 / vbv_maxrate=50000 / vbv_bufsize=62500 / nal_hrd=none / filler=0 / ip_ratio=1.40 / pb_ratio=1.30 / aq=3:0.70
Язык                                     : English
Default                                  : Да
Forced                                   : Нет

Аудио
Идентификатор                            : 2
Формат                                   : AC-3
Формат/Информация                        : Audio Coding 3
Расширение режима                        : CM (complete main)
Параметр Endianness формата              : Big
Идентификатор кодека                     : A_AC3
Продолжительность                        : 2 ч. 11 м.
Вид битрейта                             : Постоянный
Битрейт                                  : 384 Кбит/сек
Каналы                                   : 6 каналов
Расположение каналов                     : Front: L C R, Side: L R, LFE
Частота                                  : 48,0 КГц
Частота кадров                           : 31,250 кадров/сек (1536 spf)
Метод сжатия                             : С потерями
Размер потока                            : 362 Мбайт (5%)
Язык                                     : Russian
Default                                  : Да
Forced                                   : Нет

Текст #1
Идентификатор                            : 3
Формат                                   : UTF-8
Идентификатор кодека                     : S_TEXT/UTF8
Идентификатор кодека/Информация          : UTF-8 Plain Text
Заголовок                                : FORCED
Язык                                     : Russian
Default                                  : Да
Forced                                   : Нет

Текст #2
Идентификатор                            : 4
Формат                                   : UTF-8
Идентификатор кодека                     : S_TEXT/UTF8
Идентификатор кодека/Информация          : UTF-8 Plain Text
Заголовок                                : FULL
Язык                                     : Russian
Default                                  : Нет
Forced                                   : Нет

Меню
00:00:00.000                             : en:00:00:00.000
00:10:53.903                             : en:00:10:53.903
00:18:06.836                             : en:00:18:06.836
00:30:27.325                             : en:00:30:27.325
00:45:18.633                             : en:00:45:18.633
00:54:11.039                             : en:00:54:11.039
01:05:41.646                             : en:01:05:41.646
01:09:31.584                             : en:01:09:31.584
01:19:31.308                             : en:01:19:31.308
01:30:06.234                             : en:01:30:06.234
01:38:36.869                             : en:01:38:36.869
01:49:58.884                             : en:01:49:58.884
01:59:28.828                             : en:01:59:28.828




Скриншоты:
[+] Всего файлов в раздаче - 1:
Godzilla.King.of.the.Monsters.(2019).BDRip-1080p.MegaPeer.(qqss44).mkv7.52 GB

Показать еще раздачи по запросу годзилла:
2020-02-03 U Годзилла: Решающая схватка / Godzilla: Kessen Kidou Zoushoku Toshi / Gojira: kessen kidô zôshoku toshi (2018) BDRip 1080p | Kansai 2.43 GB ↑ 63 ↓ 7
2019-08-23 U Годзилла 2: Король монстров / Godzilla: King of the Monsters (2019) BDRip от Twister & ExKinoRay | iTunes 1.47 GB ↑ 304 ↓ 15
2019-08-18 U Годзилла 2: Король монстров / Godzilla: King of the Monsters (2019) BDRip от MegaPeer | iTunes 1.46 GB ↑ 2045 ↓ 132
2019-08-16 U Годзилла 2: Король монстров / Godzilla: King of the Monsters (2019) WEB-DLRip от Scarabey | iTunes 1.45 GB ↑ 238 ↓ 24
2019-08-14 U Годзилла 2: Король монстров / Godzilla: King of the Monsters (2019) WEB-DL 1080p от селезень | D, P | iTunes 9.58 GB ↑ 1017 ↓ 439
2019-07-30 U Годзилла 2: Король монстров / Ґодзілла II: Король монстрів / Godzilla: King of the Monsters (2019) WEBRip 1080p | Line | UKR 3.55 GB ↑ 165 ↓ 85
2018-01-21 U Годзилла: Планета чудовищ / Godzilla: Monster Planet (2017) WEBRip 1080p | L1 2.94 GB ↑ 1048 ↓ 274

Отзывы
Зарегистрируйтесь чтобы добавить комментарий.
Обратная связь
Copyleft ©